Welcome Guest ( Log In | Register )

Объявления

* gmail.com упорно продолжает считать почту с нас "unsolicited" и отбивает в том числе и письма активации, поэтому просьба использовать альтернативные почтовые ящики.
------------
* gmail.com continues reject all mail from us as "unsolicited" (activation mails too) therefore please use alternate mail servers.

> И неформату есть предел.

Рэп/хип-хоп/шансон/поп удаляются. Для них есть свои порталы.

 
Reply to this topicStart new topic
> Грязный Камень - Фасолевый Андеграунд [ep] (2024), Hard Rock/Heavy Metal
post Jun 13 2024, 14:30:33
Post #1

Правь статус, ####!111
**************
Group: Металариец
Posts: 56,293
Releases: 1225
On Forums: 15 years 1 month
Thanks: 55368 time(s)
Russian Federation


(IMG:https://metalarea.org/images/audiocovers/2024_Jun/acov_tid398331_thumb.jpg)

*Artist: Грязный Камень
*Album: Фасолевый Андеграунд [ep]
*Year: 2024
*Genre: Hard Rock/Heavy Metal
*Country: Russian Federation (IMG:https://metalarea.org/forum/style_images/flags/Russian%20Federation.png)
*Format: mp3@CBR320kbps
*Size: 41MB

Tracklist:
1. Фасолевый Андеграунд
2. Эпоха Меня
3. Любовь Опасна
4. Адский Костёр
5. Серый Мир
6. Грязный Камень
******************************
Total playing time: 17:50

Technical info
(IMG:https://metalarea.org/images/spectrogram/2024_Jun/cf7d792c137d94703a2243c79f990996.png)
Input File: 01. Фасолевый Андеграунд.mp3
Channels : 2
Sample Rate : 44100
Precision : 16-bit
Duration : 00:02:02.39 = 5397531 samples = 9179.47 CDDA sectors
File Size : 4.90M
Bit Rate : 320k
Sample Encoding: MPEG audio (layer I, II or III)
Comments :
Title=Фасолевый Андеграунд
Artist=Грязный Камень
Album=Фасолевый Андеграунд
Tracknumber=1
Year=2024
Genre=Hard Rock



Register


Thanks:
(2) Aresson, Wail,
Go to the top of the page
  Insert nick Quick quote
+Quote Post

Reply to this topicStart new topic
1 User(s) are reading this topic (1 Guests and 0 Anonymous Users)
0 Members:

 



- Lo-Fi Version Support form
Copyrights and abuse reports form
Time is now: 22nd July 2024 - 08:14:18