Welcome Guest ( Log In | Register )

Объявления

* gmail.com упорно продолжает считать почту с нас "unsolicited" и отбивает в том числе и письма активации, поэтому просьба использовать альтернативные почтовые ящики.
------------
* gmail.com continues reject all mail from us as "unsolicited" (activation mails too) therefore please use alternate mail servers.

> И неформату есть предел.

Рэп/хип-хоп/шансон/поп удаляются. Для них есть свои порталы.

 
Reply to this topicStart new topic
> Black Country Communion - V (2024), Hard Rock
post Jun 13 2024, 21:27:17
Post #1

21st Century Schizoid Man
**************
Group: Металариец
Posts: 8,546
Releases: 353
From: 1984
On Forums: 16 years 2 months
Thanks: 9762 time(s)
Unknown


(IMG:https://metalarea.org/images/audiocovers/2024_Jun/acov_tid398350_thumb.jpg)

*Artist: Black Country Communion
*Album: V
*Year: 2024
*Genre: Hard Rock
*Country: United States (IMG:https://metalarea.org/forum/style_images/flags/United%20States.png)
*Format: mp3@CBR320kbps
*Size: 119MB

Tracklist:
01. Enlighten 5:20
02. Stay Free 4:30
03. Red Sun 6:33
04. Restless 5:43
05. Letting Go 3:11
06. Skyway 4:27
07. You're Not Alone 4:58
08. Love And Faith 6:32
09. Too Far Gone 3:54
10. The Open Road 5:28
******************************
Total playing time: 50:36

(IMG:https://metalarea.org/images/youtube.png)
(IMG:https://metalarea.org/images/youtube.png)
(IMG:https://metalarea.org/images/youtube.png)

Extended info
Glenn Hughes - bass, lead and backing vocals
Joe Bonamassa - guitar, backing and lead vocals
Jason Bonham - drums, percussion, occasional backing vocals
Derek Sherinian - keyboards


Technical info
(IMG:https://metalarea.org/images/spectrogram/2024_Jun/7c9f131de79c138a53b1d7decf857d87.png)
Input File: 01. Enlighten.mp3
Channels : 2
Sample Rate : 44100
Precision : 16-bit
Duration : 00:05:20.33 = 14126729 samples = 24025 CDDA sectors
File Size : 13.0M
Bit Rate : 325k
Sample Encoding: MPEG audio (layer I, II or III)
Comments :
Title=Enlighten
Artist=Black Country Communion
Album=V
Tracknumber=1
Year=2024
Genre=Hard Rock



Register


Go to the top of the page
  Insert nick Quick quote
+Quote Post

Reply to this topicStart new topic
3 User(s) are reading this topic (3 Guests and 0 Anonymous Users)
0 Members:

 



- Lo-Fi Version Support form
Copyrights and abuse reports form
Time is now: 16th July 2024 - 06:28:35