Welcome Guest ( Log In | Register )

Объявления

* gmail.com упорно продолжает считать почту с нас "unsolicited" и отбивает в том числе и письма активации, поэтому просьба использовать альтернативные почтовые ящики.
------------
* gmail.com continues reject all mail from us as "unsolicited" (activation mails too) therefore please use alternate mail servers.

> И неформату есть предел.

Рэп/хип-хоп/шансон/поп удаляются. Для них есть свои порталы.

 
Reply to this topicStart new topic
> Catechism & Rezn - Infected Ambient Works [collaboration] (2020), Electronic Drone/Ambient | Electronic Drone/Ambient (D7)
post Jun 14 2024, 16:18:12
Post #1

Marionette
****
Group: Завсегдатай
Posts: 300
Releases: 9
On Forums: 17 years 3 months
Thanks: 270 time(s)
Ukraine


(IMG:https://metalarea.org/images/audiocovers/2024_Jun/acov_tid398399_thumb.jpg)

*Artist: Catechism & Rezn
*Album: Infected Ambient Works [collaboration]
*Year: 2020
*Genre: Electronic Drone/Ambient | Electronic Drone/Ambient
*Country: United States (IMG:https://metalarea.org/forum/style_images/flags/United%20States.png) | United States (IMG:https://metalarea.org/forum/style_images/flags/United%20States.png)
*Format: mp3@CBR320kbps
*Size: 152MB

Tracklist:
1. Arrival 02:50
2. Paracusis 02:38
3. Width 03:22
4. Predictions 03:09
5. Beacon 02:35
6. Sensory Depravation Chamber 03:15
7. Observing from Within 03:00
8. Inoculant Buzz 02:06
9. Sculpture of Kazaa 01:51
10. Lenticular Formations 02:16
11. Staging Sequences 02:42
12. Abject Permanence 01:58
13. Delphic Breath 02:21
14. A Warning from Shannon Volmet 01:19
15. The Psyche and the Ego 03:22
16. Through the Lens of Time 03:08
17. Rayleigh Scattering 02:04
18. Pulse 02:16
19. Death Cap 01:32
20. Destroying Angel 02:28
21. Earthball 02:56
22. Man on Horseback 02:30
23. Fly Agaric 01:58
24. Totem in the Glade 02:24
25. Alternating Dimensions 05:11
26. Memory Decay 02:29
******************************
Total playing time: 1:07:40



Technical info
(IMG:https://metalarea.org/images/spectrogram/2024_Jun/a4e838d5534c1440571b3d3e9ca0c3af.png)
Input File: 14 A Warning from Shannon Volmet.mp3
Channels : 2
Sample Rate : 44100
Precision : 16-bit
Duration : 00:01:19.22 = 3493778 samples = 5941.8 CDDA sectors
File Size : 3.17M
Bit Rate : 320k
Sample Encoding: MPEG audio (layer I, II or III)
Comments :
Title=A Warning from Shannon Volmet
Artist=Catechism, REZN
Album=Infected Ambient Works
Tracknumber=14
Year=2020
Genre=Other



Register


Thanks:
(2) Veligor, Wail,
Go to the top of the page
  Insert nick Quick quote
+Quote Post

Reply to this topicStart new topic
1 User(s) are reading this topic (1 Guests and 0 Anonymous Users)
0 Members:

 



- Lo-Fi Version Support form
Copyrights and abuse reports form
Time is now: 16th July 2024 - 06:43:51