Welcome Guest ( Log In | Register )

Объявления

* gmail.com упорно продолжает считать почту с нас "unsolicited" и отбивает в том числе и письма активации, поэтому просьба использовать альтернативные почтовые ящики.
------------
* gmail.com continues reject all mail from us as "unsolicited" (activation mails too) therefore please use alternate mail servers.

> И неформату есть предел.

Рэп/хип-хоп/шансон/поп удаляются. Для них есть свои порталы.

 
Reply to this topicStart new topic
> Rhys Fulber - Balance Of Fear (2024), Industrial Techno (D4)
post Jun 15 2024, 10:16:55
Post #1

практики шума одухотворяющего
**************
Group: Металариец
Posts: 4,165
Releases: 161
From: хроник дисмембера
On Forums: 6 years 5 months
Thanks: 7260 time(s)
Russian Federation


(IMG:https://metalarea.org/images/audiocovers/2024_Jun/acov_tid398422_thumb.jpg)

*Artist: Rhys Fulber
*Album: Balance Of Fear
*Year: 2024
*Genre: Industrial Techno
*Country: Canada (IMG:https://metalarea.org/forum/style_images/flags/Canada.png)
*Format: mp3@CBR320kbps
*Size: 98MB

Tracklist:
1.Fall Awake 06:29
2.Damage C'est Damage 04:09
3.Technology 04:46
4.European Skies 05:05
5.Circle Of Absolutes 05:40
6.The Heir 05:44
7.Despite The Noise 05:56
8.Driven 04:48
******************************
Total playing time: 42:37



Extended info


Technical info
(IMG:https://metalarea.org/images/spectrogram/2024_Jun/b8fa47ad8a44708432a413f9cd501b3a.png)
Input File: 02. Damage C\'est Damage.mp3
Channels : 2
Sample Rate : 44100
Precision : 16-bit
Duration : 00:04:09.09 = 10985045 samples = 18682 CDDA sectors
File Size : 10.2M
Bit Rate : 328k
Sample Encoding: MPEG audio (layer I, II or III)
Comments :
Title=Damage C'est Damage
Artist=Rhys Fulber
Album=Balance Of Fear
Tracknumber=2/8
Year=2024
Genre=Electro, Industrial



Register


Go to the top of the page
  Insert nick Quick quote
+Quote Post

Reply to this topicStart new topic
1 User(s) are reading this topic (1 Guests and 0 Anonymous Users)
0 Members:

 



- Lo-Fi Version Support form
Copyrights and abuse reports form
Time is now: 16th July 2024 - 08:01:35