Welcome Guest ( Log In | Register )

Объявления

* gmail.com упорно продолжает считать почту с нас "unsolicited" и отбивает в том числе и письма активации, поэтому просьба использовать альтернативные почтовые ящики.
------------
* gmail.com continues reject all mail from us as "unsolicited" (activation mails too) therefore please use alternate mail servers.

> Releases Upload / Добавление релизов

Добавить релиз тут / Click here to add release
Рекомендованные обменники / Recommended file shares

 
Reply to this topicStart new topic
> Duovert - Just A Teenager (2021), Progressive Metal
post Jun 17 2024, 19:14:29
Post #1

21st Century Schizoid Man
**************
Group: Металариец
Posts: 8,512
Releases: 338
From: 1984
On Forums: 16 years 1 month
Thanks: 9597 time(s)
Unknown


(IMG:https://metalarea.org/images/audiocovers/2024_Jun/acov_tid398517_thumb.jpg)

*Artist: Duovert
*Album: Just A Teenager
*Year: 2021
*Genre: Progressive Metal
*Country: Brazil (IMG:https://metalarea.org/forum/style_images/flags/Brazil.png)
*Format: mp3@CBR320kbps
*Size: 144MB

Tracklist:
01. Yes It's a Shark 04:32
02. Dancing in the Night 03:23
03. Enough (feat. Bruno Paraguay) 04:13
04. Animals 03:22
05. Breaking Away 03:19
06. Wanna Give You My Heart 04:24
07. Just a Teenager 04:06
08. Separate Ways (Worlds Apart) (Cover) 03:49
09. Slave 03:52
10. What's Coming Next 04:07
11. Incapable 03:56
12. Calling the Inside 03:16
13. Crazy World 05:06
14. Desert Flower 04:12
15. Standing Still 04:32
******************************
Total playing time: 1:00:09

(IMG:https://metalarea.org/images/youtube.png)
(IMG:https://metalarea.org/images/youtube.png)
(IMG:https://metalarea.org/images/youtube.png)
(IMG:https://metalarea.org/images/youtube.png)
(IMG:https://metalarea.org/images/youtube.png)

Extended info
Cleiton Souza - guitars
Rafael Faria - vocals and bass


Technical info
(IMG:https://metalarea.org/images/spectrogram/2024_Jun/3af2529a358b4034947d76c701b9b0df.png)
Input File: 01. Yes It\'s A Shark.mp3
Channels : 2
Sample Rate : 44100
Precision : 16-bit
Duration : 00:04:32.37 = 12011517 samples = 20427.8 CDDA sectors
File Size : 11.1M
Bit Rate : 326k
Sample Encoding: MPEG audio (layer I, II or III)
Comments :
Title=Yes It's A Shark
Artist=Duovert
Album=Just A Teenager
Tracknumber=1
Year=2021
Genre=Progressive Metal



Register


Go to the top of the page
  Insert nick Quick quote
+Quote Post

Reply to this topicStart new topic
1 User(s) are reading this topic (1 Guests and 0 Anonymous Users)
0 Members:

 



- Lo-Fi Version Support form
Copyrights and abuse reports form
Time is now: 24th June 2024 - 09:02:33