Welcome Guest ( Log In | Register )

Объявления

* gmail.com упорно продолжает считать почту с нас "unsolicited" и отбивает в том числе и письма активации, поэтому просьба использовать альтернативные почтовые ящики.
------------
* gmail.com continues reject all mail from us as "unsolicited" (activation mails too) therefore please use alternate mail servers.

> И неформату есть предел.

Рэп/хип-хоп/шансон/поп удаляются. Для них есть свои порталы.

 
Reply to this topicStart new topic
> Enemy 906 - Through The Hell (2024), Beatdown Hardcore
post Jun 18 2024, 16:00:47
Post #1

Восемь Литров
********
Group: Металариец
Posts: 812
Releases: 81
From: Суворов
On Forums: 6 years 5 months
Thanks: 788 time(s)
Russian Federation


(IMG:https://metalarea.org/images/audiocovers/2024_Jun/acov_tid398539_thumb.jpg)

*Artist: Enemy 906
*Album: Through The Hell
*Year: 2024
*Genre: Beatdown Hardcore
*Country: Mexico (IMG:https://metalarea.org/forum/style_images/flags/Mexico.png)
*Format: mp3@CBR320kbps
*Size: 85MB

Tracklist:
01. Intro
02. Agony (feat. Bodysnatcher)
03. Deathwish
04. Death Sentence (feat. Root of All Evil)
05. Front Toward Enemy (feat. Cycle of Abuse)
06. Interlude
07. Mercilesly
08. Lawless (feat. Medical Negligence)
09. Finish You (feat. Kraanium)
******************************
Total playing time: 28:56

(IMG:https://metalarea.org/images/youtube.png)

Technical info
(IMG:https://metalarea.org/images/spectrogram/2024_Jun/32ae5b4e872a58ac489d3c0268f2be38.png)
Input File: 02. Agony (feat. Bodysnatcher).mp3
Channels : 2
Sample Rate : 44100
Precision : 16-bit
Duration : 00:03:40.00 = 9702000 samples = 16500 CDDA sectors
File Size : 10.7M
Bit Rate : 391k
Sample Encoding: MPEG audio (layer I, II or III)
Comments :
Title=Agony (feat. Bodysnatcher)
Artist=Enemy 906
Album=Through The Hell
Tracknumber=2/9
Year=2024
Genre=Beatdown Hardcore
Discnumber=1/1



Register


Thanks:
(1) gwar,
Go to the top of the page
  Insert nick Quick quote
+Quote Post

Reply to this topicStart new topic
1 User(s) are reading this topic (1 Guests and 0 Anonymous Users)
0 Members:

 



- Lo-Fi Version Support form
Copyrights and abuse reports form
Time is now: 16th July 2024 - 06:50:02