Welcome Guest ( Log In | Register )

Объявления

* gmail.com упорно продолжает считать почту с нас "unsolicited" и отбивает в том числе и письма активации, поэтому просьба использовать альтернативные почтовые ящики.
------------
* gmail.com continues reject all mail from us as "unsolicited" (activation mails too) therefore please use alternate mail servers.

> И неформату есть предел.

Рэп/хип-хоп/шансон/поп удаляются. Для них есть свои порталы.

 
Reply to this topicStart new topic
> Danava - Live [live] (2024), Psychedelic Stoner Rock/Metal (D5)
post Jun 21 2024, 05:50:08
Post #1

Правь статус, ####!111
**************
Group: Металариец
Posts: 7,694
Releases: 7036
From: Одесса
On Forums: 16 years 1 month
Thanks: 82103 time(s)
Ukraine


(IMG:https://metalarea.org/images/audiocovers/2024_Jun/acov_tid398639_thumb.jpg)

*Artist: Danava
*Album: Live [live]
*Year: 2024
*Genre: Psychedelic Stoner Rock/Metal
*Country: United States (IMG:https://metalarea.org/forum/style_images/flags/United%20States.png)
*Format: mp3@CBR320kbps
*Size: 111MB

Tracklist:
1. Introduction/Spinning Temple Shifting 11:59
2. Maudie Shook 08:41
3. Shoot Straight with a Crooked Gun 05:57
4. Nothing but Nothing 04:14
5. Longdance 07:55
6. Let the Good Times Kill 03:31
7. Last Goodbye 04:10
******************************
Total playing time: 46:27



Extended info
Line - up:

Gregory Meleney - Vocals, Guitars (track 1-6), Synthesizers (track 1-2)
Matt Oliver - Drums (track 3-6)
Dominic Casciato - Bass (track 3-6)
Kerby Strom - Guitars (track 3-6) (Acid Wash, Dead Hunt, ex-Welcome Home Walker)
Zachariah Dellorto Blackwell - Bass (track 1-2)
Monte Mattsson - Drums (track 1-2)
Jarred Rockwell - Synthesizers (track 1-2)

Track 1-2 recorded during Danava's European Tour in 2008 at Whelan’s, Dublin, Ireland, 4/13/08.
Track 3-6 recorded during Danava's European Tour in 2023 at 007 Strahov, Prague, Czechia, 11/11/23.


Technical info
(IMG:https://metalarea.org/images/spectrogram/2024_Jun/c1bc4a0b508f588d0597d8d10c0d228a.png)
Input File: 07 - Last Goodbye (Live).mp3
Channels : 2
Sample Rate : 44100
Precision : 16-bit
Duration : 00:04:10.61 = 11051857 samples = 18795.7 CDDA sectors
File Size : 10.0M
Bit Rate : 320k
Sample Encoding: MPEG audio (layer I, II or III)
Comments :
Title=Last Goodbye (Live)
Artist=Danava
Album=Live (Live)
Tracknumber=7
Year=2024
Genre=Psychedelic Stoner Rock | Metal



Register


Thanks:
Go to the top of the page
  Insert nick Quick quote
+Quote Post

Reply to this topicStart new topic
1 User(s) are reading this topic (1 Guests and 0 Anonymous Users)
0 Members:

 



- Lo-Fi Version Support form
Copyrights and abuse reports form
Time is now: 16th July 2024 - 07:12:51