Welcome Guest ( Log In | Register )

Объявления

* gmail.com упорно продолжает считать почту с нас "unsolicited" и отбивает в том числе и письма активации, поэтому просьба использовать альтернативные почтовые ящики.
------------
* gmail.com continues reject all mail from us as "unsolicited" (activation mails too) therefore please use alternate mail servers.

> И неформату есть предел.

Рэп/хип-хоп/шансон/поп удаляются. Для них есть свои порталы.

> Within Temptation - Worlds Collide Tour - Live In Amsterdam [live] (2024), Symphonic/Alternative Rock (D)
post Jun 22 2024, 19:23:31
Post #1

Правь статус, ####!111
**************
Group: Металариец
Posts: 7,694
Releases: 7036
From: Одесса
On Forums: 16 years 1 month
Thanks: 82103 time(s)
Ukraine


(IMG:https://metalarea.org/images/audiocovers/2024_Jun/acov_tid398710_thumb.jpg)

*Artist: Within Temptation
*Album: Worlds Collide Tour - Live In Amsterdam [live]
*Year: 2024
*Genre: Symphonic/Alternative Rock
*Country: Netherlands (IMG:https://metalarea.org/forum/style_images/flags/Netherlands.png)
*Format: mp3@CBR320kbps
*Size: 166MB

Tracklist:
1. Our Solemn Hour 05:39
2. Faster 04:30
3. Paradise (What About Us?) 05:25
4. Stand My Ground 05:00
5. Angels 04:12
6. Iron 06:07
7. Raise Your Banner 05:40
8. Entertain You 03:32
9. The Reckoning 05:22
10. Supernova 05:36
11. Don't Pray For Me 03:42
12. All I Need 05:04
13. Ice Queen 05:08
14. Mother Earth 05:39
******************************
Total playing time: 1:10:36

Extended info
Line - up:
Jeroen van Veen - Bass (ex-Voyage, ex-The Circle, ex-Spina Bifida, ex-Barton Dean, ex-The Portal)
Robert Westerholt - Guitars (ex-The Circle, ex-The Portal)
Sharon den Adel - Vocals (My Indigo, ex-Kashiro, ex-The Portal)
Ruud Jolie - Guitars (ex-Karmaflow (live), For All We Know, Maiden United, ex-The Gentle Storm (live), ex-Brotherhood Foundation, ex-Countermove, ex-Vals Licht, ex-Agua de Annique (live))
Martijn Spierenburg - Keyboards (ex-Voyage, ex-The Circle)
Mike Coolen - Drums (Maiden United)
Stefan Helleblad - Guitars (Gathering of Kings, JoNo)

Guest/Session:
Amy Lee - Vocals (track 9) (Amy Lee, Evanescence)




Technical info
(IMG:https://metalarea.org/images/spectrogram/2024_Jun/5ead9a147a14996b4f1a645feeb119f8.png)
Input File: 08. Entertain You (Live in Amsterdam).mp3
Channels : 2
Sample Rate : 48000
Precision : 16-bit
Duration : 00:03:32.98 = 10222992 samples ~ 15973.4 CDDA sectors
File Size : 8.61M
Bit Rate : 323k
Sample Encoding: MPEG audio (layer I, II or III)
Comments :
Title=Entertain You (Live in Amsterdam)
Artist=Within Temptation
Album=Worlds Collide Tour (Live in Amsterdam) (Live)
Tracknumber=8
Year=2024
Genre=Symphonic | Alternative Rock



Register


Go to the top of the page
  Insert nick Quick quote
+Quote Post
 
Start new topic
Replies (1 - 3)
post Jun 22 2024, 20:19:55
Post #2

Group: Дух
Posts: 7
Releases: 0
On Forums: 1 month 5 days
Thanks: 1 time(s)
Unknown


Такие концерты надо слушать на виниловых пластинках, а никак не в mp3! Точно так же, как и лучший альбом коллектива - The Heart of Everything!
Go to the top of the page
  Insert nick Quick quote
+Quote Post
post Jun 22 2024, 20:23:56
Post #3

Ледоруб
**************
Group: Металариец
Posts: 33,780
Releases: 0
From: Санкт-Петербург
On Forums: 14 years 10 months
Thanks: 11789 time(s)
Russian Federation


Чей Файербой фейк?
Go to the top of the page
  Insert nick Quick quote
+Quote Post
post Jun 22 2024, 20:26:41
Post #4

Правь статус, ####!111
**************
Group: Металариец
Posts: 56,266
Releases: 1224
On Forums: 15 years 1 month
Thanks: 55305 time(s)
Russian Federation


ЦИТАТА(6666666 @ Jun 22 2024, 22:23:56) *
Чей Файербой фейк?


Адептуса же, так же тухло набрасывает. (IMG:style_emoticons/default/1488.gif)
Go to the top of the page
  Insert nick Quick quote
+Quote Post

Reply to this topicStart new topic
1 User(s) are reading this topic (1 Guests and 0 Anonymous Users)
0 Members:

 



- Lo-Fi Version Support form
Copyrights and abuse reports form
Time is now: 16th July 2024 - 07:30:58