Welcome Guest ( Log In | Register )

Объявления

* gmail.com упорно продолжает считать почту с нас "unsolicited" и отбивает в том числе и письма активации, поэтому просьба использовать альтернативные почтовые ящики.
------------
* gmail.com continues reject all mail from us as "unsolicited" (activation mails too) therefore please use alternate mail servers.

> Releases Upload / Добавление релизов

Добавить релиз тут / Click here to add release
Рекомендованные обменники / Recommended file shares

> 200 Stab Wounds - Manual Manic Procedures (2024), Death Metal
post Jun 26 2024, 16:59:59
Post #1

Правь статус, ####!111
**************
Group: Металариец
Posts: 36,460
Releases: 27188
From: Г.Харьков
On Forums: 12 years 2 months
Thanks: 592716 time(s)
Ukraine


(IMG:https://metalarea.org/images/audiocovers/2024_Jun/acov_tid398866_thumb.jpg)

*Artist: 200 Stab Wounds
*Album: Manual Manic Procedures
*Year: 2024
*Genre: Death Metal
*Country: United States (IMG:https://metalarea.org/forum/style_images/flags/United%20States.png)
*Format: mp3@CBR320kbps
*Size: 72MB

Tracklist:
1. Hands of Eternity
2. Gross Abuse
3. Manual Manic Procedures
4. Release the Stench
5. Led to the Chamber / Liquified
6. Flesh from Within
7. Defiled Gestation
8. Ride the Flatline
9. Parricide
******************************
Total playing time: 29:22



Extended info
Steve Buhl Vocals, Guitars
See also: ex-Subtype Zero, ex-Cringe
Ezra Cook Bass (2019-present)
See also: ex-Homewrecker
Owen Pooley Drums (2020-present)
See also: Assault, ex-Subtype Zero
Raymond Macdonald Guitars (2023-present)
See also: Kombat, ex-Frozen Soul, ex-Imperial Slaughter (live), ex-Tribal Gaze (live), ex-Golgatha, ex-Obstruction, ex-Pozole


Technical info
(IMG:https://metalarea.org/images/spectrogram/2024_Jun/15cf230c9acf60ecb2d02be74e06d328.png)
Input File: 07. Defiled Gestation.mp3
Channels : 2
Sample Rate : 44100
Precision : 16-bit
Duration : 00:04:24.17 = 11650029 samples = 19813 CDDA sectors
File Size : 10.7M
Bit Rate : 325k
Sample Encoding: MPEG audio (layer I, II or III)
Comments :
Title=Defiled Gestation
Artist=200 Stab Wounds
Album=Manual Manic Procedures
Tracknumber=7
Year=2024
Genre=Death Metal



Register


Go to the top of the page
  Insert nick Quick quote
+Quote Post
 
Start new topic
Replies (1 - 4)
post Jun 26 2024, 17:36:19
Post #2

Group: Подсевший
Posts: 34
Releases: 0
On Forums: 11 years 4 months
Thanks: 19 time(s)
Unknown


120, 200 колотых ран, кто больше?
Go to the top of the page
  Insert nick Quick quote
+Quote Post
post Jun 27 2024, 18:07:04
Post #3

De Mysteriis Dom Sathanas
**************
Group: Металариец
Posts: 4,826
Releases: 64
From: Doom
On Forums: 16 years 1 week
Thanks: 4309 time(s)
Russian Federation


ЦИТАТА(nidhoggr @ Jun 26 2024, 19:36:19) *
120, 200 колотых ран, кто больше?

122 (IMG:style_emoticons/default/1488.gif)
Go to the top of the page
  Insert nick Quick quote
+Quote Post
post Jun 29 2024, 13:06:34
Post #4

Group: Подсевший
Posts: 22
Releases: 0
From: ровеньки
On Forums: 5 years 2 months
Thanks: 2 time(s)
Ukraine


понравился
Go to the top of the page
  Insert nick Quick quote
+Quote Post
post Jul 10 2024, 12:42:54
Post #5

⏸⏹/⏏ ⏪⏩◀⏺
*******
Group: Металариец
Posts: 755
Releases: 2
From: Уругвай ёпта.
On Forums: 17 years 5 months
Thanks: 228 time(s)
Uruguay


Отличный альбом от отличной банды.


Thanks:
(1) DarkHorde,
Go to the top of the page
  Insert nick Quick quote
+Quote Post

Reply to this topicStart new topic
2 User(s) are reading this topic (2 Guests and 0 Anonymous Users)
0 Members:

 



- Lo-Fi Version Support form
Copyrights and abuse reports form
Time is now: 24th July 2024 - 09:34:04