Welcome Guest ( Log In | Register )

Объявления

* gmail.com упорно продолжает считать почту с нас "unsolicited" и отбивает в том числе и письма активации, поэтому просьба использовать альтернативные почтовые ящики.
------------
* gmail.com continues reject all mail from us as "unsolicited" (activation mails too) therefore please use alternate mail servers.

> И неформату есть предел.

Рэп/хип-хоп/шансон/поп удаляются. Для них есть свои порталы.

 
Reply to this topicStart new topic
> Kursha - Чёрная Земля (2024), Metallic Hardcore
post Jul 6 2024, 12:25:26
Post #1

Маньяк
**********
Group: Металариец
Posts: 1,129
Releases: 10
On Forums: 6 years 1 month
Thanks: 816 time(s)
Russian Federation


(IMG:https://metalarea.org/images/audiocovers/2024_Jul/acov_tid399246_thumb.jpg)

*Artist: Kursha
*Album: Чёрная Земля
*Year: 2024
*Genre: Metallic Hardcore
*Country: Russian Federation (IMG:https://metalarea.org/forum/style_images/flags/Russian%20Federation.png)
*Format: mp3@CBR320kbps
*Size: 81MB

Tracklist:
01. Последний вздох (feat. Tyagotenie)
02. Пепел
03. Истоки
04. Глубокая могила
05. Крест (feat. Tsygun)
06. Ложь святых
07. Фаталист
08. Нет пути назад
09. Честь и покой
10. Клеймо (feat. потери.)
11. Эпитафия
12. Человек
******************************
Total playing time: 33:18

Preview 1

Extended info
Спустя два года Курша возвращается с первым концептуальным альбомом в своей дискографии. «Чёрная земля» рассказывает историю безымянного героя, который сталкивается с жутким выбором — остаться верным своему слову, но поступиться честью, или предать самого себя, но свершить отмщение?

Рекомендуется совместить прослушивание альбома с прочтением текстов:
Читать здесь.


Technical info
(IMG:https://metalarea.org/images/spectrogram/2024_Jul/846f69f8d21464539b1ce5fb85524471.png)
Input File: 03 - Истоки.mp3
Channels : 2
Sample Rate : 44100
Precision : 16-bit
Duration : 00:02:58.00 = 7849800 samples = 13350 CDDA sectors
File Size : 7.51M
Bit Rate : 338k
Sample Encoding: MPEG audio (layer I, II or III)
Comments :
Title=Истоки
Artist=Kursha
Album=Чёрная земля
Tracknumber=3
Year=2024-06-21
Genre=Metal



Register


Thanks:
(1) VALERY,
Go to the top of the page
  Insert nick Quick quote
+Quote Post

Reply to this topicStart new topic
1 User(s) are reading this topic (1 Guests and 0 Anonymous Users)
0 Members:

 



- Lo-Fi Version Support form
Copyrights and abuse reports form
Time is now: 16th July 2024 - 06:45:04