Welcome Guest ( Log In | Register )

Объявления

* gmail.com упорно продолжает считать почту с нас "unsolicited" и отбивает в том числе и письма активации, поэтому просьба использовать альтернативные почтовые ящики.
------------
* gmail.com continues reject all mail from us as "unsolicited" (activation mails too) therefore please use alternate mail servers.

> Releases Upload / Добавление релизов

Добавить релиз тут / Click here to add release
Рекомендованные обменники / Recommended file shares

 
Reply to this topicStart new topic
> Crown Of Anguish - Stalker At The Midian Gate (2024), Epic Death Metal
post Jul 9 2024, 04:49:34
Post #1

Правь статус, ####!111
**************
Group: Металариец
Posts: 36,412
Releases: 27150
From: Г.Харьков
On Forums: 12 years 2 months
Thanks: 591287 time(s)
Ukraine


(IMG:https://metalarea.org/images/audiocovers/2024_Jul/acov_tid399302_thumb.jpg)

*Artist: Crown Of Anguish
*Album: Stalker At The Midian Gate
*Year: 2024
*Genre: Epic Death Metal
*Country: United Kingdom (IMG:https://metalarea.org/forum/style_images/flags/United%20Kingdom.png)
*Format: mp3@CBR320kbps
*Size: 90MB

Tracklist:
1. Gathering Stormfires of the Perilous Want
2. Radiant Moon of Aphos
3. Limbless in Rapture
4. Tribute to the Ashen King
5. From the Embers to the Catacombs
6. Sidereal Rites
7. He Who Bears the Key
8. Graven Challengers to the Rift
9. Vengeful Eye of the Magi
10. Gates to Eternity
******************************
Total playing time: 38:12



Extended info
FLAC-Rip
Dan Walden Bass
See also: Apostate, ex-Nihilism Incarnate
Matt Gornall Guitars
See also: Apostate, ex-Dissectrophy, ex-Deathtrip
Ali Lauder Vocals
See also: Ageless Summoning, Enucleate, Of Spire & Throne, Void of Light, ex-Acatalepsy


Technical info
(IMG:https://metalarea.org/images/spectrogram/2024_Jul/938c455fd8721018310e8a014eba4ca3.png)
Input File: 09 - Vengeful Eye of the Magi.mp3
Channels : 2
Sample Rate : 44100
Precision : 16-bit
Duration : 00:06:15.00 = 16537500 samples = 28125 CDDA sectors
File Size : 15.2M
Bit Rate : 325k
Sample Encoding: MPEG audio (layer I, II or III)
Comments :
Title=Vengeful Eye of the Magi
Artist=Crown of Anguish
Album=Stalker at the Midian Gate
Tracknumber=9
Year=2024-07-09
Genre=Metal
Discnumber=1



Register


Go to the top of the page
  Insert nick Quick quote
+Quote Post

Reply to this topicStart new topic
2 User(s) are reading this topic (2 Guests and 0 Anonymous Users)
0 Members:

 



- Lo-Fi Version Support form
Copyrights and abuse reports form
Time is now: 15th July 2024 - 22:01:46