Welcome Guest ( Log In | Register )

Объявления

* gmail.com упорно продолжает считать почту с нас "unsolicited" и отбивает в том числе и письма активации, поэтому просьба использовать альтернативные почтовые ящики.
------------
* gmail.com continues reject all mail from us as "unsolicited" (activation mails too) therefore please use alternate mail servers.

> Releases Upload / Добавление релизов

Добавить релиз тут / Click here to add release
Рекомендованные обменники / Recommended file shares

 
Reply to this topicStart new topic
> Abhorrent Execration - Vengeance Unfolds [ep] (2024), Old School Death Metal
post Jul 9 2024, 05:10:05
Post #1

Правь статус, ####!111
**************
Group: Металариец
Posts: 7,694
Releases: 7036
From: Одесса
On Forums: 16 years 1 month
Thanks: 82098 time(s)
Ukraine


(IMG:https://metalarea.org/images/audiocovers/2024_Jul/acov_tid399303_thumb.jpg)

*Artist: Abhorrent Execration
*Album: Vengeance Unfolds [ep]
*Year: 2024
*Genre: Old School Death Metal
*Country: France (IMG:https://metalarea.org/forum/style_images/flags/France.png)
*Format: mp3@CBR320kbps
*Size: 31MB

Tracklist:
1. Servants of Perversion 03:15
2. Towards Death 03:42
3. Shadows of Deceit - Vengeance Unfolds 06:10
******************************
Total playing time: 13:07



Extended info
Line - up:

OG - Drums
RP - Vocals, Bass


Technical info
(IMG:https://metalarea.org/images/spectrogram/2024_Jul/0851237fc2d57fec7615526ac3d8f4df.png)
Input File: 03. Shadows of Deceit - Vengeance Unfolds.mp3
Channels : 2
Sample Rate : 44100
Precision : 16-bit
Duration : 00:06:10.34 = 16331774 samples = 27775.1 CDDA sectors
File Size : 14.8M
Bit Rate : 320k
Sample Encoding: MPEG audio (layer I, II or III)
Comments :
Title=Shadows of Deceit - Vengeance Unfolds
Artist=Abhorrent Execration
Album=Vengeance Unfolds (EP)
Tracknumber=3
Year=2024
Genre=22



Register


Go to the top of the page
  Insert nick Quick quote
+Quote Post

Reply to this topicStart new topic
2 User(s) are reading this topic (2 Guests and 0 Anonymous Users)
0 Members:

 



- Lo-Fi Version Support form
Copyrights and abuse reports form
Time is now: 15th July 2024 - 22:13:49