Welcome Guest ( Log In | Register )

Объявления

* gmail.com упорно продолжает считать почту с нас "unsolicited" и отбивает в том числе и письма активации, поэтому просьба использовать альтернативные почтовые ящики.
------------
* gmail.com continues reject all mail from us as "unsolicited" (activation mails too) therefore please use alternate mail servers.

> Releases Upload / Добавление релизов

Добавить релиз тут / Click here to add release
Рекомендованные обменники / Recommended file shares

 
Reply to this topicStart new topic
> Deep Silence - Into The Deep (2024), Death Metal
post Jul 9 2024, 07:14:36
Post #1

Правь статус, ####!111
**************
Group: Металариец
Posts: 36,411
Releases: 27145
From: Г.Харьков
On Forums: 12 years 2 months
Thanks: 591280 time(s)
Ukraine


(IMG:https://metalarea.org/images/audiocovers/2024_Jul/acov_tid399304_thumb.jpg)

*Artist: Deep Silence
*Album: Into The Deep
*Year: 2024
*Genre: Death Metal
*Country: Colombia (IMG:https://metalarea.org/forum/style_images/flags/Colombia.png)
*Format: mp3@CBR320kbps
*Size: 96MB

Tracklist:
01. Silencio Profundo Intro
02. The Holy Toxic Family
03. Gossima
04. The World Behind the World
05. Mória-Interludio
06. Post Plandemic
07. Into the Deep
08. Brainwasher
09. Castigo Corpus
10. Orozco the Embalmer
11. He Aqui Donde Vuestra Vanagloria Yace Outro
12. Into the Deep (Demo Version)
******************************
Total playing time: 41:36




Extended info
Juan Torres Bass
See also: ex-Reqviem
Jorge Diaz Guitars
Daniel Daza Guitars, Vocals (2005-present)


Technical info
(IMG:https://metalarea.org/images/spectrogram/2024_Jul/9be3311cb5e0e35832d88dd59e456ba5.png)
Input File: 04 - The World Behind the World.mp3
Channels : 2
Sample Rate : 44100
Precision : 16-bit
Duration : 00:05:24.46 = 14308598 samples = 24334.4 CDDA sectors
File Size : 13.1M
Bit Rate : 324k
Sample Encoding: MPEG audio (layer I, II or III)
Comments :
Title=The World Behind the World
Artist=Deep Silence
Album=Into the Deep
Tracknumber=4
Year=2024



Register


Go to the top of the page
  Insert nick Quick quote
+Quote Post

Reply to this topicStart new topic
1 User(s) are reading this topic (1 Guests and 0 Anonymous Users)
0 Members:

 



- Lo-Fi Version Support form
Copyrights and abuse reports form
Time is now: 15th July 2024 - 21:00:24