Welcome Guest ( Log In | Register )

Объявления

* gmail.com упорно продолжает считать почту с нас "unsolicited" и отбивает в том числе и письма активации, поэтому просьба использовать альтернативные почтовые ящики.
------------
* gmail.com continues reject all mail from us as "unsolicited" (activation mails too) therefore please use alternate mail servers.

> Releases Upload / Добавление релизов

Добавить релиз тут / Click here to add release
Рекомендованные обменники / Recommended file shares

> Mithrandir - Latla​ú​s (2024), Black Metal/Dungeon Synth (D4)
post Jul 9 2024, 10:57:21
Post #1

Правь статус, 616
**************
Group: Металариец
Posts: 11,047
Releases: 8998
From: 55°35’N 38°08’E
On Forums: 16 years 2 weeks
Thanks: 160309 time(s)
Russian Federation


(IMG:https://metalarea.org/images/audiocovers/2024_Jul/acov_tid399308_thumb.jpg)

*Artist: Mithrandir
*Album: Latla​ú​s
*Year: 2024
*Genre: Black Metal/Dungeon Synth
*Country: Finland (IMG:https://metalarea.org/forum/style_images/flags/Finland.png)
*Format: mp3@CBR320kbps
*Size: 111MB

Tracklist:
1.Marching Upon the Walls of Selemdûr 08:35
2.Journey Towards Latlaús 03:05
3.Evergrove 06:29
4.Rhindelgâl 06:55
5.Astral Fortress of Dread 05:09
6.Ascendance to Lichdom 14:46
******************************
Total playing time: 44:59



Technical info
(IMG:https://metalarea.org/images/spectrogram/2024_Jul/7f0d1f0a43ec91d3d7bddb263b3c3c43.png)
Input File: 03 Evergrove.mp3
Channels : 2
Sample Rate : 44100
Precision : 16-bit
Duration : 00:06:29.28 = 17167028 samples = 29195.6 CDDA sectors
File Size : 15.8M
Bit Rate : 324k
Sample Encoding: MPEG audio (layer I, II or III)
Comments :
Title=Evergrove
Artist=Mithrandir
Album=Latlaús
Tracknumber=3
Year=2024
Genre=Black Metal



Register


Go to the top of the page
  Insert nick Quick quote
+Quote Post
 
Start new topic
Replies (1 - 2)
post Jul 10 2024, 09:14:54
Post #2

Правь статус, ####!111
**************
Group: Металариец
Posts: 2,895
Releases: 428
From: Bretagne
On Forums: 16 years 2 months
Thanks: 5394 time(s)
France


thanks! nice release (IMG:style_emoticons/default/20.gif) sounds like Satanic Warmaster but more melodic

"name your price" on bandcamp


Thanks:
(1) nemx,
Go to the top of the page
  Insert nick Quick quote
+Quote Post
post Jul 18 2024, 17:37:31
Post #3

Маньяк
**********
Group: Металариец
Posts: 1,304
Releases: 0
From: Новосибирск
On Forums: 14 years 10 months
Thanks: 386 time(s)
Russian Federation


"Оригинальное" название. (IMG:style_emoticons/default/1488.gif)

Очередные помешанные на толкинизме, видимо (IMG:style_emoticons/default/25.gif)
Go to the top of the page
  Insert nick Quick quote
+Quote Post

Reply to this topicStart new topic
2 User(s) are reading this topic (2 Guests and 0 Anonymous Users)
0 Members:

 



- Lo-Fi Version Support form
Copyrights and abuse reports form
Time is now: 24th July 2024 - 10:07:41