Welcome Guest ( Log In | Register )

Объявления

* gmail.com упорно продолжает считать почту с нас "unsolicited" и отбивает в том числе и письма активации, поэтому просьба использовать альтернативные почтовые ящики.
------------
* gmail.com continues reject all mail from us as "unsolicited" (activation mails too) therefore please use alternate mail servers.

> Releases Upload / Добавление релизов

Добавить релиз тут / Click here to add release
Рекомендованные обменники / Recommended file shares

 
Reply to this topicStart new topic
> Devil Lee Rot - Rot In Germany [live] (2002), Blackened Heavy Metal (D10)
post Jul 9 2024, 11:00:56
Post #1

Group: Подсевший
Posts: 15
Releases: 4
On Forums: 2 years 1 month
Thanks: 72 time(s)
Germany


(IMG:https://metalarea.org/images/audiocovers/2024_Jul/acov_tid399309_thumb.jpg)

*Artist: Devil Lee Rot
*Album: Rot In Germany [live]
*Year: 2002
*Genre: Blackened Heavy Metal
*Country: Sweden (IMG:https://metalarea.org/forum/style_images/flags/Sweden.png)
*Format: mp3@CBR320kbps
*Size: 82MB

Tracklist:
1. Execution of the Innocent 01:59
2. Rage Plague 02:33
3. Hell Hounds Roar 02:42
4. I Am Evil 02:34
5. Under the Church (Pagan Rites cover) 06:55
6. Fire Walk with Me 03:01
7. Hellmachine 04:44
8. Sworn to Violence 03:03
9. Root of All Evil 03:19
10. Bloodlust and Devastation (Pagan Rites cover) 04:22
******************************
Total playing time: 35:12

Extended info
Self-released by the band on CD-R only. I suppose these are the same recordings as used on "Devil United with Hellbangers" (released in 2006).


Technical info
(IMG:https://metalarea.org/images/spectrogram/2024_Jul/af62e865621c1b523e8800a16bd74dbe.png)
Input File: Track02.mp3
Channels : 2
Sample Rate : 44100
Precision : 16-bit
Duration : 00:02:33.77 = 6781037 samples = 11532.4 CDDA sectors
File Size : 6.15M
Bit Rate : 320k
Sample Encoding: MPEG audio (layer I, II or III)
Comments :
Artist=Devil Lee Rot
Album=Rot In Germany
Year=2002



Register


Go to the top of the page
  Insert nick Quick quote
+Quote Post

Reply to this topicStart new topic
1 User(s) are reading this topic (1 Guests and 0 Anonymous Users)
0 Members:

 



- Lo-Fi Version Support form
Copyrights and abuse reports form
Time is now: 15th July 2024 - 21:58:56