Welcome Guest ( Log In | Register )

Объявления

* gmail.com упорно продолжает считать почту с нас "unsolicited" и отбивает в том числе и письма активации, поэтому просьба использовать альтернативные почтовые ящики.
------------
* gmail.com continues reject all mail from us as "unsolicited" (activation mails too) therefore please use alternate mail servers.

> Releases Upload / Добавление релизов

Добавить релиз тут / Click here to add release
Рекомендованные обменники / Recommended file shares

 
Reply to this topicStart new topic
> Gorguina - Of Shrouds And Daggers (2021), Black Metal
post Jul 9 2024, 12:19:16
Post #1

Правь статус, 616
**************
Group: Металариец
Posts: 11,047
Releases: 8998
From: 55°35’N 38°08’E
On Forums: 16 years 2 weeks
Thanks: 160308 time(s)
Russian Federation


(IMG:https://metalarea.org/images/audiocovers/2024_Jul/acov_tid399310_thumb.jpg)

*Artist: Gorguina
*Album: Of Shrouds And Daggers
*Year: 2021
*Genre: Black Metal
*Country: Spain (IMG:https://metalarea.org/forum/style_images/flags/Spain.png)
*Format: mp3@CBR320kbps
*Size: 104MB

Tracklist:
1.Summoning Of The Muses 02:17
2.Humwawa Of The South Winds 04:12
3.Befouling Shrieks 04:52
4.Eternally Incarnate 08:42
5.The Fathomless Dusk 04:28
6.Dominus Lucifugus 07:30
7.A Sisyphean Task 05:06
8.The Veil Of Condescension 05:02
9.Interitus Opera 03:00
******************************
Total playing time: 45:09




Technical info
(IMG:https://metalarea.org/images/spectrogram/2024_Jul/d2b4ef2cebc39f73bd8babf40c6ce6a3.png)
Input File: 02 Humwawa Of The South Winds.mp3
Channels : 2
Sample Rate : 44100
Precision : 16-bit
Duration : 00:04:12.46 = 11133662 samples = 18934.8 CDDA sectors
File Size : 10.2M
Bit Rate : 323k
Sample Encoding: MPEG audio (layer I, II or III)
Comments :
Title=Humwawa Of The South Winds
Artist=Gorguina
Album=Of Shrouds And Daggers
Tracknumber=2/9
Year=2021
Genre=Black Metal
Discnumber=1/1



Register


Go to the top of the page
  Insert nick Quick quote
+Quote Post

Reply to this topicStart new topic
1 User(s) are reading this topic (1 Guests and 0 Anonymous Users)
0 Members:

 



- Lo-Fi Version Support form
Copyrights and abuse reports form
Time is now: 24th July 2024 - 09:34:50