Welcome Guest ( Log In | Register )

Объявления

* gmail.com упорно продолжает считать почту с нас "unsolicited" и отбивает в том числе и письма активации, поэтому просьба использовать альтернативные почтовые ящики.
------------
* gmail.com continues reject all mail from us as "unsolicited" (activation mails too) therefore please use alternate mail servers.

> Releases Upload / Добавление релизов

Добавить релиз тут / Click here to add release
Рекомендованные обменники / Recommended file shares

> Taurvi - ΛBS​Ω​LVTΣ (2024), Atmospheric/Industrial Black Metal
post Jul 9 2024, 13:04:31
Post #1

Правь статус, ####!111
**************
Group: Металариец
Posts: 9,316
Releases: 7545
On Forums: 13 years 8 months
Thanks: 133455 time(s)
Italy


(IMG:https://metalarea.org/images/audiocovers/2024_Jul/acov_tid399311_thumb.jpg)

*Artist: Taurvi
*Album: ΛBS​Ω​LVTΣ
*Year: 2024
*Genre: Atmospheric/Industrial Black Metal
*Country: Unknown (IMG:https://metalarea.org/forum/style_images/flags/Unknown.png)
*Format: mp3@CBR320kbps
*Size: 75MB

Tracklist:
1.DΣMΩNIK 08:42
2.ΩBSΩLΣTΣ 08:19
3.ΛNGΣLIK 06:20
4.ΛBSΩLVTΣ 07:09
******************************
Total playing time: 30:30



Extended info
Probably from Iran


Technical info
(IMG:https://metalarea.org/images/spectrogram/2024_Jul/fbed1ee1bb8a20d718ba264937f680ac.png)
Input File: 03 ΛNGΣLIK.mp3
Channels : 2
Sample Rate : 44100
Precision : 16-bit
Duration : 00:06:20.76 = 16791428 samples = 28556.9 CDDA sectors
File Size : 15.4M
Bit Rate : 324k
Sample Encoding: MPEG audio (layer I, II or III)
Comments :
Title=ΛNGΣLIK
Artist=TΛVRVI
Album=ΛBSΩLVTΣ
Tracknumber=3
Year=2024



Register


Go to the top of the page
  Insert nick Quick quote
+Quote Post
 
Start new topic
Replies (1 - 7)
post Jul 10 2024, 09:34:06
Post #2

Правь статус, ####!111
**************
Group: Металариец
Posts: 2,895
Releases: 428
From: Bretagne
On Forums: 16 years 2 months
Thanks: 5394 time(s)
France


thanks !! super mix between industrial/atmospheric black metal (like Mysticum) with some hardcore-techno moments (IMG:style_emoticons/default/20.gif)

i can't wait for someone trying to mix industrial black metal with speedcore (IMG:style_emoticons/default/hmm.gif)


Thanks:
Go to the top of the page
  Insert nick Quick quote
+Quote Post
post Jul 10 2024, 13:36:56
Post #3

Маньяк
**********
Group: Металариец
Posts: 1,352
Releases: 0
From: Isla de Margarita, Venezuela
On Forums: 5 years 6 months
Thanks: 423 time(s)
Venezuela


Buen trabajo. Lastima el diseño de arte de la portada tan infantil / Хорошая работа. Больно, что арт-дизайн на обложке такой детский / Good job. It hurts the art design on the cover, so childish
Go to the top of the page
  Insert nick Quick quote
+Quote Post
post Jul 10 2024, 14:52:17
Post #4

Leegte
***********
Group: Металариец
Posts: 1,816
Releases: 19
From:
On Forums: 12 years 3 months
Thanks: 2711 time(s)



QUOTE
DΣMΩNIK
ДСМОНИК

QUOTE
ΛNGΣLIK

ЛНГСЛИК

βρωμίκωλος
Go to the top of the page
  Insert nick Quick quote
+Quote Post
post Jul 10 2024, 14:57:25
Post #5

Маньяк
**********
Group: Металариец
Posts: 1,166
Releases: 84
On Forums: 18 years 4 months
Thanks: 2905 time(s)
Germany


QUOTE(Evrom @ Jul 10 2024, 10:34:06) *
i can't wait for someone trying to mix industrial black metal with speedcore (IMG:style_emoticons/default/hmm.gif)


you should check out the guys from hatewire: & (IMG:style_emoticons/default/9.gif)


Thanks:
(1) Evrom,
Go to the top of the page
  Insert nick Quick quote
+Quote Post
post Jul 10 2024, 15:45:48
Post #6

Правь статус, ####!111
**************
Group: Металариец
Posts: 2,895
Releases: 428
From: Bretagne
On Forums: 16 years 2 months
Thanks: 5394 time(s)
France


QUOTE(Carcharoth @ Jul 10 2024, 15:57:25) *
you should check out the guys from hatewire: & (IMG:style_emoticons/default/9.gif)


thanks so much !!!! i"m listening to it (IMG:style_emoticons/default/headcrab.png) (IMG:style_emoticons/default/headcrab.png) you made my day (IMG:style_emoticons/default/9.gif)
Go to the top of the page
  Insert nick Quick quote
+Quote Post
post Jul 10 2024, 15:47:51
Post #7

Маньяк
**********
Group: Металариец
Posts: 1,166
Releases: 84
On Forums: 18 years 4 months
Thanks: 2905 time(s)
Germany


you're welcome! glad to see, that there are people on here that are listening to extreme electronic music too. (IMG:style_emoticons/default/19.gif)
Go to the top of the page
  Insert nick Quick quote
+Quote Post
post Jul 10 2024, 16:20:47
Post #8

кручу наждак
**************
Group: Металариец
Posts: 6,634
Releases: 111
From: Самара
On Forums: 14 years 2 months
Thanks: 5176 time(s)
Russian Federation


Чота хз... Не зашла эта унца-унца.


Thanks:
(1) Daale,
Go to the top of the page
  Insert nick Quick quote
+Quote Post

Reply to this topicStart new topic
2 User(s) are reading this topic (2 Guests and 0 Anonymous Users)
0 Members:

 



- Lo-Fi Version Support form
Copyrights and abuse reports form
Time is now: 24th July 2024 - 09:46:50