Welcome Guest ( Log In | Register )

Объявления

* gmail.com упорно продолжает считать почту с нас "unsolicited" и отбивает в том числе и письма активации, поэтому просьба использовать альтернативные почтовые ящики.
------------
* gmail.com continues reject all mail from us as "unsolicited" (activation mails too) therefore please use alternate mail servers.

> Releases Upload / Добавление релизов

Добавить релиз тут / Click here to add release
Рекомендованные обменники / Recommended file shares

 
Reply to this topicStart new topic
> Mortuary Ghoul - Norman (2024), Brutal Death Metal (D4)
post Jul 9 2024, 13:48:53
Post #1

Правь статус, ####!111
**************
Group: Металариец
Posts: 9,265
Releases: 7497
On Forums: 13 years 7 months
Thanks: 132576 time(s)
Italy


(IMG:https://metalarea.org/images/audiocovers/2024_Jul/acov_tid399312_thumb.jpg)

*Artist: Mortuary Ghoul
*Album: Norman
*Year: 2024
*Genre: Brutal Death Metal
*Country: United States (IMG:https://metalarea.org/forum/style_images/flags/United%20States.png)
*Format: mp3@CBR320kbps
*Size: 77MB

Tracklist:
1.Peephole 02:32
2.Vacancy 02:57
3.Taxidermy 02:33
4.Dissociate 02:28
5.Psycho 01:44
6.Stab 04:45
7.Investigate 02:37
8.Deranged Motherhood Personified 02:05
9.Reveal 06:07
10.Fruit Cellar 02:22
11.Mother 02:45
******************************
Total playing time: 32:55



Technical info
(IMG:https://metalarea.org/images/spectrogram/2024_Jul/11c60800ba7ad07c9e15b9f171dcebe1.png)
Input File: 8.Deranged Motherhood Personified.mp3
Channels : 2
Sample Rate : 44100
Precision : 16-bit
Duration : 00:02:05.40 = 5530008 samples = 9404.78 CDDA sectors
File Size : 5.12M
Bit Rate : 326k
Sample Encoding: MPEG audio (layer I, II or III)
Comments :
Title=Deranged Motherhood Personified
Artist=Mortuary Ghoul
Album=Norman
Tracknumber=8/11
Year=2024
Genre=Brutal Death Metal
Discnumber=1/1



Register


Go to the top of the page
  Insert nick Quick quote
+Quote Post

Reply to this topicStart new topic
2 User(s) are reading this topic (2 Guests and 0 Anonymous Users)
0 Members:

 



- Lo-Fi Version Support form
Copyrights and abuse reports form
Time is now: 15th July 2024 - 21:12:22