Welcome Guest ( Log In | Register )

Объявления

* gmail.com упорно продолжает считать почту с нас "unsolicited" и отбивает в том числе и письма активации, поэтому просьба использовать альтернативные почтовые ящики.
------------
* gmail.com continues reject all mail from us as "unsolicited" (activation mails too) therefore please use alternate mail servers.

> Releases Upload / Добавление релизов

Добавить релиз тут / Click here to add release
Рекомендованные обменники / Recommended file shares

> Rochus - Haunting In Your Brain (1988-1990) [compilation] (2012), Thrash Metal
post Jul 9 2024, 14:45:23
Post #1

Подвал
**************
Group: Металариец
Posts: 20,593
Releases: 11831
From: Far East (Khabarovsk)
On Forums: 15 years 5 months
Thanks: 140705 time(s)
Russian Federation


(IMG:https://metalarea.org/images/audiocovers/2024_Jul/acov_tid399313_thumb.jpg)

*Artist: Rochus
*Album: Haunting In Your Brain (1988-1990) [compilation]
*Year: 2012
*Genre: Thrash Metal
*Country: Germany (IMG:https://metalarea.org/forum/style_images/flags/Germany.png)
*Format: mp3@CBR320kbps
*Size: 168MB

Tracklist:
1. Intro/Excalibur (1988) 05:09
2. Let's Thrash (Demo 1988) 04:34
3. Nur Ein Traum 03:50
4. St. Rochus (Instrumetal) 03:18
5. Mithridates 04:07
6. Haunting In Your Brain 06:22
7. Frankenstein 05:36
8. Excalibur (1989) 05:18
9. Let's Thrash (Studio 1989) 05:40
10. Poltergeist 04:45
11. Godzilla 04:18
12. Black Death 04:06
13. Holy War 04:31
14. New Horizons 04:00
15. Plastic Life 03:43
16. Excalibur (Live) 04:00
17. Let's Thrash (Live) 04:29
******************************
Total playing time: 1:17:46

Extended info
Tracks 01-05: Demo Recordings 1988
Tracks 06-07: Studio Recordings 1990 (track 06 appears on "Years of Ignorance" Demo 1990)
Tracks 08, 10: Demo Recordings 1989
Track 09: Studio Recording 1989 (from "Rock-Bilanz 1989" Compilation Lp)
Tracks 11-15: "Tears of Ignorance" Demo 1990
Tracks 16-17: Live Recordings 1988
Thanx Genuine_Thrashiac for the info, frostdomain for the FLAC & scans, and THERION for the original topic!!!


Technical info
(IMG:https://metalarea.org/images/spectrogram/2024_Jul/ff433f0980685f10e76caadb1c5c0c4b.png)
Input File: 09-Let\'s Thrash (Studio 1989).mp3
Channels : 2
Sample Rate : 44100
Precision : 16-bit
Duration : 00:05:40.41 = 15012081 samples = 25530.8 CDDA sectors
File Size : 13.6M
Bit Rate : 320k
Sample Encoding: MPEG audio (layer I, II or III)
Comments :
Title=Let's Thrash (Studio 1989)
Artist=Rochus (Ger)
Album=Haunting In Your Brain (Compilation)
Tracknumber=09
Year=2012
Genre=Thrash Metal



Register


Go to the top of the page
  Insert nick Quick quote
+Quote Post
 
Start new topic
Replies (1 - 1)
post Jul 10 2024, 16:15:39
Post #2

Подвал
**************
Group: Металариец
Posts: 20,593
Releases: 11831
From: Far East (Khabarovsk)
On Forums: 15 years 5 months
Thanks: 140705 time(s)
Russian Federation


mirror 320 kbps:
Register

FLAC:
Register


Go to the top of the page
  Insert nick Quick quote
+Quote Post

Reply to this topicStart new topic
2 User(s) are reading this topic (2 Guests and 0 Anonymous Users)
0 Members:

 



- Lo-Fi Version Support form
Copyrights and abuse reports form
Time is now: 15th July 2024 - 21:23:02