Welcome Guest ( Log In | Register )

Объявления

* gmail.com упорно продолжает считать почту с нас "unsolicited" и отбивает в том числе и письма активации, поэтому просьба использовать альтернативные почтовые ящики.
------------
* gmail.com continues reject all mail from us as "unsolicited" (activation mails too) therefore please use alternate mail servers.
 
Reply to this topicStart new topic
> Poseydon - With Tears In My Eyes [ep] (2018), Death/Thrash Metal (D6)
post Jul 9 2024, 15:02:32
Post #1

Подвал
**************
Group: Металариец
Posts: 20,615
Releases: 11840
From: Far East (Khabarovsk)
On Forums: 15 years 5 months
Thanks: 140953 time(s)
Russian Federation


(IMG:https://metalarea.org/images/audiocovers/2024_Jul/acov_tid399314_thumb.jpg)

*Artist: Poseydon
*Album: With Tears In My Eyes [ep]
*Year: 2018
*Genre: Death/Thrash Metal
*Country: Belgium (IMG:https://metalarea.org/forum/style_images/flags/Belgium.png)
*Format: mp3@CBR192kbps
*Size: 29MB

Tracklist:
1. With Tears In My Eyes 03:34
2. Maniacs 03:33
3. Stronger Than All 03:35
4. Mind Intrusion 03:08
5. Thief Of Dreams 07:13
******************************
Total playing time: 21:03

Extended info
Re-recording of the Demo 1998.
Track 5 was taken as bonus from Detonation II (1994) compilation.


Technical info
(IMG:https://metalarea.org/images/spectrogram/2024_Jul/2821e920face0fd795c04e52e997d401.png)
Input File: 01-With Tears In My Eyes.mp3
Channels : 2
Sample Rate : 44100
Precision : 16-bit
Duration : 00:03:34.09 = 9441149 samples = 16056.4 CDDA sectors
File Size : 5.14M
Bit Rate : 192k
Sample Encoding: MPEG audio (layer I, II or III)
Comments :
Title=With Tears In My Eyes
Artist=Poseydon (Belg)
Album=With Tears In My Eyes (EP)
Tracknumber=01
Year=2018
Genre=Death Metal



Register


Go to the top of the page
  Insert nick Quick quote
+Quote Post

Reply to this topicStart new topic
1 User(s) are reading this topic (1 Guests and 0 Anonymous Users)
0 Members:

 



- Lo-Fi Version Support form
Copyrights and abuse reports form
Time is now: 24th July 2024 - 10:26:12