Welcome Guest ( Log In | Register )

Объявления

* gmail.com упорно продолжает считать почту с нас "unsolicited" и отбивает в том числе и письма активации, поэтому просьба использовать альтернативные почтовые ящики.
------------
* gmail.com continues reject all mail from us as "unsolicited" (activation mails too) therefore please use alternate mail servers.
 
Reply to this topicStart new topic
> Voxhumana - Voxhumana [demo] (1991), Teachnical Thrash Metal
post Jul 9 2024, 15:37:01
Post #1

Подвал
**************
Group: Металариец
Posts: 20,615
Releases: 11840
From: Far East (Khabarovsk)
On Forums: 15 years 5 months
Thanks: 140953 time(s)
Russian Federation


(IMG:https://metalarea.org/images/audiocovers/2024_Jul/acov_tid399315_thumb.jpg)

*Artist: Voxhumana
*Album: Voxhumana [demo]
*Year: 1991
*Genre: Teachnical Thrash Metal
*Country: United States (IMG:https://metalarea.org/forum/style_images/flags/United%20States.png)
*Format: mp3@CBR192kbps
*Size: 10MB

Tracklist:
1. Subhumanity 03:34
2. Purity In Vain 03:20
******************************
Total playing time: 6:54

Extended info
Band from Maryland.
Thanx Robert Burch for this demo!


Technical info
(IMG:https://metalarea.org/images/spectrogram/2024_Jul/127e04a55bd7662e40d0765aca19ffcb.png)
Input File: 01-Subhumanity.mp3
Channels : 2
Sample Rate : 44100
Precision : 16-bit
Duration : 00:03:34.19 = 9445735 samples = 16064.2 CDDA sectors
File Size : 5.14M
Bit Rate : 192k
Sample Encoding: MPEG audio (layer I, II or III)
Comments :
Title=Subhumanity
Artist=Voxhumana (US, MD)
Album=Voxhumana (Demo)
Tracknumber=01
Year=1991
Genre=Thrash Metal



Register


Go to the top of the page
  Insert nick Quick quote
+Quote Post

Reply to this topicStart new topic
1 User(s) are reading this topic (1 Guests and 0 Anonymous Users)
0 Members:

 



- Lo-Fi Version Support form
Copyrights and abuse reports form
Time is now: 24th July 2024 - 10:43:28