Welcome Guest ( Log In | Register )

Объявления

* gmail.com упорно продолжает считать почту с нас "unsolicited" и отбивает в том числе и письма активации, поэтому просьба использовать альтернативные почтовые ящики.
------------
* gmail.com continues reject all mail from us as "unsolicited" (activation mails too) therefore please use alternate mail servers.

> 

Здесь релизы с живыми прямыми ссылками на lossless

 
Reply to this topicStart new topic
> Weaving Shadows - Leech [single] (2024), Sludge/Stoner/Doom Metal
post Jul 9 2024, 16:45:00
Post #1

Правь статус, ####!111
**************
Group: Металариец
Posts: 7,723
Releases: 7063
From: Одесса
On Forums: 16 years 1 month
Thanks: 82396 time(s)
Ukraine


(IMG:https://metalarea.org/images/audiocovers/2024_Jul/acov_tid399316_thumb.jpg)

*Artist: Weaving Shadows
*Album: Leech [single]
*Year: 2024
*Genre: Sludge/Stoner/Doom Metal
*Country: United States (IMG:https://metalarea.org/forum/style_images/flags/United%20States.png)
*Format: flac
*Size: 74MB

Tracklist:
1. Leech 09:58
******************************
Total playing time: 9:58



Extended info
Line - up:

Kyle Androy - Bass (ex-Gravegouger, ex-Dopecorpse, ex-Azimuth, ex-Karathos)
Mason Weber - Drums (TerraDactyl, ex-Dopecorpse, ex-Cathexis)
Erik Fichtner - Guitar (ex-Dopecorpse)
Adrian Salcido - Guitars (Cheap Porno Flick, ex-Sepulcro, ex-Earrape, ex-Homesick Abortion)


Technical info
(IMG:https://metalarea.org/images/spectrogram/2024_Jul/4bd31850677263e7ca15a72aa9feb898.png)
Input File: 01 Leech.flac
Channels : 2
Sample Rate : 44100
Precision : 16-bit
Duration : 00:09:58.92 = 26412527 samples = 44919.3 CDDA sectors
File Size : 73.9M
Bit Rate : 987k
Sample Encoding: 16-bit FLAC
Comments :
Artist=Weaving Shadows
Album=Leech (Single)
Date=2024
Genre=Sludge | Stoner | Doom Metal
Title=Leech
TrackNumber=01
Description=



Register


Go to the top of the page
  Insert nick Quick quote
+Quote Post

Reply to this topicStart new topic
1 User(s) are reading this topic (1 Guests and 0 Anonymous Users)
0 Members:

 



- Lo-Fi Version Support form
Copyrights and abuse reports form
Time is now: 24th July 2024 - 10:55:53