Welcome Guest ( Log In | Register )

Объявления

* gmail.com упорно продолжает считать почту с нас "unsolicited" и отбивает в том числе и письма активации, поэтому просьба использовать альтернативные почтовые ящики.
------------
* gmail.com continues reject all mail from us as "unsolicited" (activation mails too) therefore please use alternate mail servers.

> Releases Upload / Добавление релизов

Добавить релиз тут / Click here to add release
Рекомендованные обменники / Recommended file shares

 
Reply to this topicStart new topic
> Celestial Shadows & Permanent Disbelief - Sepulcralis Vulturius Spectra [split] (2024), Experimental Black Metal | Raw Black Metal (D10)
post Jul 9 2024, 17:55:02
Post #1

Правь статус, ####!111
**************
Group: Металариец
Posts: 7,723
Releases: 7063
From: Одесса
On Forums: 16 years 1 month
Thanks: 82395 time(s)
Ukraine


(IMG:https://metalarea.org/images/audiocovers/2024_Jul/acov_tid399318_thumb.jpg)

*Artist: Celestial Shadows & Permanent Disbelief
*Album: Sepulcralis Vulturius Spectra [split]
*Year: 2024
*Genre: Experimental Black Metal | Raw Black Metal
*Country: Australia (IMG:https://metalarea.org/forum/style_images/flags/Australia.png) | Spain (IMG:https://metalarea.org/forum/style_images/flags/Spain.png)
*Format: mp3@CBR320kbps
*Size: 47MB

Tracklist:
Celestial Shadows:
1. Glorious Invader 04:51
2. Devil in Your Eye 03:54
Permanent Disbelief:
3. Grvesomesque 03:54
4. Anathema 07:00
******************************
Total playing time: 19:39



Technical info
(IMG:https://metalarea.org/images/spectrogram/2024_Jul/bde7fe27984e1c66422b9abcb235a582.png)
Input File: 01. Glorious Invader.mp3
Channels : 2
Sample Rate : 48000
Precision : 16-bit
Duration : 00:04:51.27 = 13980816 samples ~ 21845 CDDA sectors
File Size : 11.7M
Bit Rate : 322k
Sample Encoding: MPEG audio (layer I, II or III)
Comments :
Title=Glorious Invader
Artist=Celestial Shadows
Album=Sepulcralis Vulturius Spectra (Split)
Tracknumber=1
Year=2024
Genre=Experimental Black Metal



Register


Go to the top of the page
  Insert nick Quick quote
+Quote Post

Reply to this topicStart new topic
1 User(s) are reading this topic (1 Guests and 0 Anonymous Users)
0 Members:

 



- Lo-Fi Version Support form
Copyrights and abuse reports form
Time is now: 24th July 2024 - 09:07:25