Welcome Guest ( Log In | Register )

Объявления

* gmail.com упорно продолжает считать почту с нас "unsolicited" и отбивает в том числе и письма активации, поэтому просьба использовать альтернативные почтовые ящики.
------------
* gmail.com continues reject all mail from us as "unsolicited" (activation mails too) therefore please use alternate mail servers.

> Releases Upload / Добавление релизов

Добавить релиз тут / Click here to add release
Рекомендованные обменники / Recommended file shares

 
Reply to this topicStart new topic
> Fallen Relic - Lethal Reflection [ep] (2024), Heavy/Groove Metal/Hard Rock
post Jul 9 2024, 18:32:41
Post #1

Правь статус, ####!111
**************
Group: Металариец
Posts: 7,723
Releases: 7063
From: Одесса
On Forums: 16 years 1 month
Thanks: 82395 time(s)
Ukraine


(IMG:https://metalarea.org/images/audiocovers/2024_Jul/acov_tid399319_thumb.jpg)

*Artist: Fallen Relic
*Album: Lethal Reflection [ep]
*Year: 2024
*Genre: Heavy/Groove Metal/Hard Rock
*Country: United Kingdom (IMG:https://metalarea.org/forum/style_images/flags/United%20Kingdom.png)
*Format: mp3@CBR320kbps
*Size: 54MB

Tracklist:
1. Reach For The Sky 03:38
2. In Solitude 04:26
3. Judgement 04:54
4. The Bad Guy 03:45
5. Look At What You’ve Made 06:12
******************************
Total playing time: 22:55



Extended info
Line - up:

Dave Smith-Vicary - Bass (ex-Dark Matter Transfer)
Richie Symons - Guitars
Matt Scott - Vocals
Mark Shurety - Drums (Centiment, To Follow a Madman, ex-Spoiler)


Technical info
(IMG:https://metalarea.org/images/spectrogram/2024_Jul/f7fc94c425fa4f08bb24d440a67f0126.png)
Input File: 04. The Bad Guy.mp3
Channels : 2
Sample Rate : 48000
Precision : 16-bit
Duration : 00:03:46.01 = 10848528 samples ~ 16950.8 CDDA sectors
File Size : 9.04M
Bit Rate : 320k
Sample Encoding: MPEG audio (layer I, II or III)
Comments :
Title=The Bad Guy
Artist=Fallen Relic
Album=Lethal Reflection (EP)
Tracknumber=4
Year=2024
Genre=Heavy | Groove Metal | Hard Rock



Register


Go to the top of the page
  Insert nick Quick quote
+Quote Post

Reply to this topicStart new topic
1 User(s) are reading this topic (1 Guests and 0 Anonymous Users)
0 Members:

 



- Lo-Fi Version Support form
Copyrights and abuse reports form
Time is now: 24th July 2024 - 09:19:48