Welcome Guest ( Log In | Register )

Объявления

* gmail.com упорно продолжает считать почту с нас "unsolicited" и отбивает в том числе и письма активации, поэтому просьба использовать альтернативные почтовые ящики.
------------
* gmail.com continues reject all mail from us as "unsolicited" (activation mails too) therefore please use alternate mail servers.

> Releases Upload / Добавление релизов

Добавить релиз тут / Click here to add release
Рекомендованные обменники / Recommended file shares

 
Reply to this topicStart new topic
> Eldergrey - Well Of Souls [ep] (2024), Sludge/Doom Metal
post Jul 9 2024, 18:41:07
Post #1

Правь статус, ####!111
**************
Group: Металариец
Posts: 7,694
Releases: 7036
From: Одесса
On Forums: 16 years 1 month
Thanks: 82098 time(s)
Ukraine


(IMG:https://metalarea.org/images/audiocovers/2024_Jul/acov_tid399320_thumb.jpg)

*Artist: Eldergrey
*Album: Well Of Souls [ep]
*Year: 2024
*Genre: Sludge/Doom Metal
*Country: United Kingdom (IMG:https://metalarea.org/forum/style_images/flags/United%20Kingdom.png)
*Format: mp3@CBR320kbps
*Size: 60MB

Tracklist:
1. Superlithic 05:46
2. Black River 05:34
3. Well of Souls 05:27
4. Empire 04:54
5. Southern Star 03:45 instrumental
******************************
Total playing time: 25:26



Extended info
Line - up:

Clive Withers - Bass
Ian Field-Richards - Guitars, Bass, Vocals (Outrun the Day, ex-Snub)


Technical info
(IMG:https://metalarea.org/images/spectrogram/2024_Jul/964d1f15e1a35708faccc528ae99414a.png)
Input File: 04 - Empire.mp3
Channels : 2
Sample Rate : 44100
Precision : 16-bit
Duration : 00:04:54.00 = 12965400 samples = 22050 CDDA sectors
File Size : 11.8M
Bit Rate : 321k
Sample Encoding: MPEG audio (layer I, II or III)
Comments :
Title=Empire
Artist=Eldergrey
Album=Well of Souls (EP)
Tracknumber=4
Year=2024-07-05
Genre=Sludge | Doom Metal



Register


Go to the top of the page
  Insert nick Quick quote
+Quote Post

Reply to this topicStart new topic
2 User(s) are reading this topic (2 Guests and 0 Anonymous Users)
0 Members:

 



- Lo-Fi Version Support form
Copyrights and abuse reports form
Time is now: 15th July 2024 - 21:49:48