Welcome Guest ( Log In | Register )

Объявления

* gmail.com упорно продолжает считать почту с нас "unsolicited" и отбивает в том числе и письма активации, поэтому просьба использовать альтернативные почтовые ящики.
------------
* gmail.com continues reject all mail from us as "unsolicited" (activation mails too) therefore please use alternate mail servers.

> Releases Upload / Добавление релизов

Добавить релиз тут / Click here to add release
Рекомендованные обменники / Recommended file shares

> Sitis - Ruina (2022), Black Metal
post Jul 9 2024, 18:42:53
Post #1

Правь статус, ####!111
**************
Group: Металариец
Posts: 8,873
Releases: 199
From: HELL
On Forums: 17 years 9 months
Thanks: 30964 time(s)
Uruguay


(IMG:https://metalarea.org/images/audiocovers/2024_Jul/acov_tid399321_thumb.jpg)

*Artist: Sitis
*Album: Ruina
*Year: 2022
*Genre: Black Metal
*Country: Croatia (IMG:https://metalarea.org/forum/style_images/flags/Croatia.png)
*Format: mp3@CBR320kbps
*Size: 120MB

Tracklist:
1. Magija noći 05:14
2. Hladna logika 07:30
3. Plamen krvi 06:42
4. Blazing Horizon 07:33
5. Ruina 03:13
6. The Pity of Christ 06:00
7. Messenger of Hell 04:32
8. Otrovni snovi 10:36
******************************
Total playing time: 51:20

Extended info
DEEZER HI FI ACCOUNT SOURCE


Technical info
(IMG:https://metalarea.org/images/spectrogram/2024_Jul/8b0882a22c4813bfa14c22e5db70d335.png)
Input File: 02 - Hladna Logika.mp3
Channels : 2
Sample Rate : 44100
Precision : 16-bit
Duration : 00:07:30.00 = 19845000 samples = 33750 CDDA sectors
File Size : 18.3M
Bit Rate : 326k
Sample Encoding: MPEG audio (layer I, II or III)
Comments :
Title=Hladna Logika
Artist=Sitis
Album=Ruina
Tracknumber=2
Year=2022-01-16
Genre=Metal
Discnumber=1



Register


Go to the top of the page
  Insert nick Quick quote
+Quote Post
 
Start new topic
Replies (1 - 1)
post Jul 10 2024, 13:28:43
Post #2

Два Литра
**
Group: Завсегдатай
Posts: 186
Releases: 5
From: Москва
On Forums: 17 years 5 months
Thanks: 167 time(s)
Russian Federation


https://www.youtube.com/watch?v=PmrSHACNWbM...p;start_radio=1


Thanks:
(1) stub888,
Go to the top of the page
  Insert nick Quick quote
+Quote Post

Reply to this topicStart new topic
2 User(s) are reading this topic (2 Guests and 0 Anonymous Users)
0 Members:

 



- Lo-Fi Version Support form
Copyrights and abuse reports form
Time is now: 15th July 2024 - 22:01:58