Welcome Guest ( Log In | Register )

Объявления

* gmail.com упорно продолжает считать почту с нас "unsolicited" и отбивает в том числе и письма активации, поэтому просьба использовать альтернативные почтовые ящики.
------------
* gmail.com continues reject all mail from us as "unsolicited" (activation mails too) therefore please use alternate mail servers.

> Releases Upload / Добавление релизов

Добавить релиз тут / Click here to add release
Рекомендованные обменники / Recommended file shares

> Fulminate - Internal Degradation [demo] (2024), Grindcore
post Jul 9 2024, 18:51:54
Post #1

Правь статус, ####!111
**************
Group: Металариец
Posts: 7,723
Releases: 7063
From: Одесса
On Forums: 16 years 1 month
Thanks: 82396 time(s)
Ukraine


(IMG:https://metalarea.org/images/audiocovers/2024_Jul/acov_tid399322_thumb.jpg)

*Artist: Fulminate
*Album: Internal Degradation [demo]
*Year: 2024
*Genre: Grindcore
*Country: United States (IMG:https://metalarea.org/forum/style_images/flags/United%20States.png)
*Format: mp3@CBR320kbps
*Size: 75MB

Tracklist:
1. Xenomorph (Dead Infection cover) 03:32
2. Interior Rupture 01:56
3. Fragmented by Extreme Velocity 01:23
4. Turbulent Bionic Atrocities 01:24
5. Ethical Restrictions Collapse 01:37
6. Celestial Entities 02:52
7. Senses Eradicated 02:43
8. System Shock 02:32
9. Final Ritual to the Ancient Sovereign 01:55
10. Rusted Execution 00:27
11. Amplified 02:23
12. Oozing Manifolds Within the Ignoble Construct 02:05
13. Lethal Cyborg Unit 02:30
14. Gored by Experimentation 01:54
15. Frontal Trauma Resection 02:12
******************************
Total playing time: 31:25



Technical info
(IMG:https://metalarea.org/images/spectrogram/2024_Jul/cec1aeb721f3b38f59be66ff728f4d39.png)
Input File: 09. Final Ritual to the Ancient Sovereign.mp3
Channels : 2
Sample Rate : 44100
Precision : 16-bit
Duration : 00:01:55.94 = 5112998 samples = 8695.57 CDDA sectors
File Size : 4.64M
Bit Rate : 320k
Sample Encoding: MPEG audio (layer I, II or III)
Comments :
Title=Final Ritual to the Ancient Sovereign
Artist=Fulminate
Album=Internal Degradation (Demo)
Tracknumber=9
Year=2024
Genre=Grindcore



Register


Thanks:
Go to the top of the page
  Insert nick Quick quote
+Quote Post
 
Start new topic
Replies (1 - 1)
post Jul 10 2024, 10:09:05
Post #2

Правь статус, ####!111
**************
Group: Металариец
Posts: 2,897
Releases: 429
From: Bretagne
On Forums: 16 years 2 months
Thanks: 5400 time(s)
France


nice old school death /grindcore (IMG:style_emoticons/default/20.gif)

"name your price" on bandcamp
Go to the top of the page
  Insert nick Quick quote
+Quote Post

Reply to this topicStart new topic
1 User(s) are reading this topic (1 Guests and 0 Anonymous Users)
0 Members:

 



- Lo-Fi Version Support form
Copyrights and abuse reports form
Time is now: 24th July 2024 - 11:13:25