Welcome Guest ( Log In | Register )

Объявления

* gmail.com упорно продолжает считать почту с нас "unsolicited" и отбивает в том числе и письма активации, поэтому просьба использовать альтернативные почтовые ящики.
------------
* gmail.com continues reject all mail from us as "unsolicited" (activation mails too) therefore please use alternate mail servers.

> Releases Upload / Добавление релизов

Добавить релиз тут / Click here to add release
Рекомендованные обменники / Recommended file shares

> Blodørn - Dødsjakt (2024), Viking/Black Metal
post Jul 9 2024, 18:55:43
Post #1

Правь статус, 616
**************
Group: Металариец
Posts: 11,047
Releases: 8998
From: 55°35’N 38°08’E
On Forums: 16 years 2 weeks
Thanks: 160307 time(s)
Russian Federation


(IMG:https://metalarea.org/images/audiocovers/2024_Jul/acov_tid399323_thumb.jpg)

*Artist: Blodørn
*Album: Dødsjakt
*Year: 2024
*Genre: Viking/Black Metal
*Country: Norway (IMG:https://metalarea.org/forum/style_images/flags/Norway.png)
*Format: mp3@CBR320kbps
*Size: 107MB

Tracklist:
1.Dødsjakt 06:49
2.Ferdens Ende 04:35
3.Ulvens Vrede 05:45
4.Skarp Den Eggen 04:55
5.Stupbratt 05:56
6.Stillhet I Dalen 05:09
7.Flagget Satt 05:37
8.Den Stille Natt 07:18
******************************
Total playing time: 46:04


(IMG:https://metalarea.org/images/youtube.png)
(IMG:https://metalarea.org/images/youtube.png)

Technical info
(IMG:https://metalarea.org/images/spectrogram/2024_Jul/3e7c0fc044df71ca00d85b907e2ea8ee.png)
Input File: 01 Dødsjakt.mp3
Channels : 2
Sample Rate : 44100
Precision : 16-bit
Duration : 00:06:49.47 = 18057583 samples = 30710.2 CDDA sectors
File Size : 16.6M
Bit Rate : 323k
Sample Encoding: MPEG audio (layer I, II or III)
Comments :
Title=Dødsjakt
Artist=Blodørn
Album=Dødsjakt
Tracknumber=1/8
Year=2024
Genre=Black Metal
Discnumber=1/1



Register


Go to the top of the page
  Insert nick Quick quote
+Quote Post
 
Start new topic
Replies (1 - 2)
post Jul 9 2024, 22:11:30
Post #2

Восемь Литров
********
Group: Металариец
Posts: 826
Releases: 0
From: where the sun slumbers
On Forums: 16 years 1 month
Thanks: 399 time(s)
Unknown


(IMG:https://sentinelrecords.com/wp/wp-content/uploads/2019/11/Behemoth_-_Grom.jpg)


Thanks:
(1) cesar,
Go to the top of the page
  Insert nick Quick quote
+Quote Post
post Yesterday, 16:51:29
Post #3

Два Литра
**
Group: Завсегдатай
Posts: 102
Releases: 2
On Forums: 11 years 7 months
Thanks: 31 time(s)
Norfolk Island


Ребят, есть в лосслесс?
Go to the top of the page
  Insert nick Quick quote
+Quote Post

Reply to this topicStart new topic
1 User(s) are reading this topic (1 Guests and 0 Anonymous Users)
0 Members:

 



- Lo-Fi Version Support form
Copyrights and abuse reports form
Time is now: 24th July 2024 - 09:15:21