Welcome Guest ( Log In | Register )

Объявления

* gmail.com упорно продолжает считать почту с нас "unsolicited" и отбивает в том числе и письма активации, поэтому просьба использовать альтернативные почтовые ящики.
------------
* gmail.com continues reject all mail from us as "unsolicited" (activation mails too) therefore please use alternate mail servers.

> Releases Upload / Добавление релизов

Добавить релиз тут / Click here to add release
Рекомендованные обменники / Recommended file shares

> Yawar Simi - Legion Saqra (2024), Thrash Metal
post Jul 9 2024, 19:05:44
Post #1

Правь статус, ####!111
**************
Group: Металариец
Posts: 7,723
Releases: 7063
From: Одесса
On Forums: 16 years 1 month
Thanks: 82395 time(s)
Ukraine


(IMG:https://metalarea.org/images/audiocovers/2024_Jul/acov_tid399325_thumb.jpg)

*Artist: Yawar Simi
*Album: Legion Saqra
*Year: 2024
*Genre: Thrash Metal
*Country: Peru (IMG:https://metalarea.org/forum/style_images/flags/Peru.png)
*Format: mp3@CBR320kbps
*Size: 104MB

Tracklist:
1. Ruedas de fuego 03:21
2. Directo a la yugular 02:42
3. Caos y furia 03:15
4. Ecos del destino 02:43
5. Hermanos de furia 03:18
6. Machusaqra 03:00
7. Salve saqra 04:00
8. Rodando con el Diablo 02:48
9. Expansión de la mente 03:15
10. Viento nocturno 03:15
11. Honor y lealtad 04:13
12. Atendiendo al llamado 04:00
13. Viajero (BT) 04:12
******************************
Total playing time: 44:02



Extended info
Line - up:

Erik Pucuhuayla - Bass, Vocals
Gustavo Cordova - Drums
Jhon Castro - Guitars (Yana Raymi, ex-Indoraza)


Technical info
(IMG:https://metalarea.org/images/spectrogram/2024_Jul/f34276adcb5762002ea7670fce636e66.png)
Input File: 09. Expansión de la Mente.mp3
Channels : 2
Sample Rate : 48000
Precision : 16-bit
Duration : 00:03:15.75 = 9395856 samples ~ 14681 CDDA sectors
File Size : 7.83M
Bit Rate : 320k
Sample Encoding: MPEG audio (layer I, II or III)
Comments :
Title=Expansion de la Mente
Artist=Yawar Mallku
Album=Legion saqras
Tracknumber=9
Year=2024
Genre=144



Register


Go to the top of the page
  Insert nick Quick quote
+Quote Post
 
Start new topic
Replies (1 - 3)
post Jul 10 2024, 10:59:39
Post #2
BAN
Banned till
Jun 13 4762, 12:38:20



Genre incomprensible.... No Thrash , No Black... Boh !!!!
Go to the top of the page
  Insert nick Quick quote
+Quote Post
post Jul 10 2024, 13:31:59
Post #3

Маньяк
**********
Group: Металариец
Posts: 1,351
Releases: 0
From: Isla de Margarita, Venezuela
On Forums: 5 years 6 months
Thanks: 423 time(s)
Venezuela


QUOTE(1488 @ Jul 10 2024, 05:59:39) *
Genre incomprensible.... No Thrash , No Black... Boh !!!!


Groove-Metal
Go to the top of the page
  Insert nick Quick quote
+Quote Post
post Jul 10 2024, 14:17:03
Post #4

Два Литра
**
Group: Завсегдатай
Posts: 197
Releases: 0
From: Одесса
On Forums: 15 years 2 months
Thanks: 52 time(s)
Ukraine


Gruvos Metalos скорее
Go to the top of the page
  Insert nick Quick quote
+Quote Post

Reply to this topicStart new topic
2 User(s) are reading this topic (2 Guests and 0 Anonymous Users)
0 Members:

 



- Lo-Fi Version Support form
Copyrights and abuse reports form
Time is now: 24th July 2024 - 09:43:02