Welcome Guest ( Log In | Register )

Объявления

* gmail.com упорно продолжает считать почту с нас "unsolicited" и отбивает в том числе и письма активации, поэтому просьба использовать альтернативные почтовые ящики.
------------
* gmail.com continues reject all mail from us as "unsolicited" (activation mails too) therefore please use alternate mail servers.

> Releases Upload / Добавление релизов

Добавить релиз тут / Click here to add release
Рекомендованные обменники / Recommended file shares

 
Reply to this topicStart new topic
> Serpentine Creation - Ave Eva [single] (2018), Black Metal (D4)
post Jul 9 2024, 19:16:22
Post #1

Правь статус, 616
**************
Group: Металариец
Posts: 11,009
Releases: 8961
From: 55°35’N 38°08’E
On Forums: 16 years 1 week
Thanks: 159609 time(s)
Russian Federation


(IMG:https://metalarea.org/images/audiocovers/2024_Jul/acov_tid399326_thumb.jpg)

*Artist: Serpentine Creation
*Album: Ave Eva [single]
*Year: 2018
*Genre: Black Metal
*Country: Bulgaria (IMG:https://metalarea.org/forum/style_images/flags/Bulgaria.png)
*Format: mp3@CBR320kbps
*Size: 28MB

Tracklist:
1.Ave Eva 05:55
2.Ave Eva (Orchestral Version) 06:00
******************************
Total playing time: 11:55


(IMG:https://metalarea.org/images/youtube.png)
Discogs

Technical info
(IMG:https://metalarea.org/images/spectrogram/2024_Jul/868a9d818ec511f43e533919d7f9e95f.png)
Input File: 02 Ave Eva (Orchestral Version).mp3
Channels : 2
Sample Rate : 44100
Precision : 16-bit
Duration : 00:06:00.09 = 15880145 samples = 27007 CDDA sectors
File Size : 14.5M
Bit Rate : 322k
Sample Encoding: MPEG audio (layer I, II or III)
Comments :
Title=Ave Eva (Orchestral Version)
Artist=Serpentine Creation
Album=Ave Eva
Tracknumber=2/2
Year=2018
Genre=Black Metal
Discnumber=1/1



Register


Go to the top of the page
  Insert nick Quick quote
+Quote Post

Reply to this topicStart new topic
2 User(s) are reading this topic (2 Guests and 0 Anonymous Users)
0 Members:

 



- Lo-Fi Version Support form
Copyrights and abuse reports form
Time is now: 15th July 2024 - 21:05:36