Welcome Guest ( Log In | Register )

Объявления

* gmail.com упорно продолжает считать почту с нас "unsolicited" и отбивает в том числе и письма активации, поэтому просьба использовать альтернативные почтовые ящики.
------------
* gmail.com continues reject all mail from us as "unsolicited" (activation mails too) therefore please use alternate mail servers.

> Releases Upload / Добавление релизов

Добавить релиз тут / Click here to add release
Рекомендованные обменники / Recommended file shares

> The Mourning - Hush (2024), Progressive Metal/Rock
post Jul 9 2024, 21:02:12
Post #1

Правь статус, ####!111
**************
Group: Металариец
Posts: 36,460
Releases: 27188
From: Г.Харьков
On Forums: 12 years 2 months
Thanks: 592718 time(s)
Ukraine


(IMG:https://metalarea.org/images/audiocovers/2024_Jul/acov_tid399327_thumb.jpg)

*Artist: The Mourning
*Album: Hush
*Year: 2024
*Genre: Progressive Metal/Rock
*Country: United States (IMG:https://metalarea.org/forum/style_images/flags/United%20States.png)
*Format: mp3@CBR320kbps
*Size: 119MB

Tracklist:
01. Chaos Machine 04:57
02. The Mountain 05:38
03. He Cries 04:22
04. I Feel The Rain 05:05
05. Hush 05:04
06. The Wind 04:40
07. My Own Way 04:47
08. Cries Of The Mind 05:34
09. My Own Hell 04:48
10. Smooth Seas 07:02
******************************
Total playing time: 51:57

Preview 1

Extended info


Technical info
(IMG:https://metalarea.org/images/spectrogram/2024_Jul/62e6bd325ad1c5515010f9ad9ff83e44.png)
Input File: 07. My Own Way.mp3
Channels : 2
Sample Rate : 44100
Precision : 16-bit
Duration : 00:04:47.08 = 12660140 samples = 21530.9 CDDA sectors
File Size : 11.5M
Bit Rate : 322k
Sample Encoding: MPEG audio (layer I, II or III)
Comments :
Title=My Own Way
Artist=The Mourning
Album=Hush
Tracknumber=7
Year=2024
Genre=Progressive Rock/Metal



Register


Go to the top of the page
  Insert nick Quick quote
+Quote Post
 
Start new topic
Replies (1 - 1)
post Jul 11 2024, 08:12:23
Post #2

hearer & reader
**************
Group: Металариец
Posts: 10,946
Releases: 234
From: Moscow
On Forums: 16 years 10 months
Thanks: 13710 time(s)
Russian Federation


Go to the top of the page
  Insert nick Quick quote
+Quote Post

Reply to this topicStart new topic
1 User(s) are reading this topic (1 Guests and 0 Anonymous Users)
0 Members:

 



- Lo-Fi Version Support form
Copyrights and abuse reports form
Time is now: 24th July 2024 - 10:08:39