Welcome Guest ( Log In | Register )

Объявления

* gmail.com упорно продолжает считать почту с нас "unsolicited" и отбивает в том числе и письма активации, поэтому просьба использовать альтернативные почтовые ящики.
------------
* gmail.com continues reject all mail from us as "unsolicited" (activation mails too) therefore please use alternate mail servers.

> Releases Upload / Добавление релизов

Добавить релиз тут / Click here to add release
Рекомендованные обменники / Recommended file shares

 
Reply to this topicStart new topic
> Flesh Torrent - The Goat [ep] (2024), Death/Thrash/Groove Metal
post Jul 10 2024, 00:00:04
Post #1

Правь статус, ####!111
**************
Group: Металариец
Posts: 36,412
Releases: 27150
From: Г.Харьков
On Forums: 12 years 2 months
Thanks: 591282 time(s)
Ukraine


(IMG:https://metalarea.org/images/audiocovers/2024_Jul/acov_tid399329_thumb.jpg)

*Artist: Flesh Torrent
*Album: The Goat [ep]
*Year: 2024
*Genre: Death/Thrash/Groove Metal
*Country: Australia (IMG:https://metalarea.org/forum/style_images/flags/Australia.png)
*Format: mp3@CBR320kbps
*Size: 42MB

Tracklist:
1. Allagash 02:52
2. Cryptid 03:32
3. Fenrir 03:38
4. The Butcher 03:42
5. The Big Sleep 04:03
******************************
Total playing time: 17:47



(IMG:https://metalarea.org/images/youtube.png)

Extended info
Mitch Story Bass
See also: ex-Magget Death
Des Goy Drums (2016-present), Vocals (2016-present)
See also: ex-Inhailed
Dan Hass Guitars (2016-present), Vocals (2016-present)
See also: ex-Magget Death


Technical info
(IMG:https://metalarea.org/images/spectrogram/2024_Jul/bd2112ed610ed81b0f8996c3e228031a.png)
Input File: 05 - the Big sleep.mp3
Channels : 2
Sample Rate : 44100
Precision : 16-bit
Duration : 00:04:03.00 = 10716300 samples = 18225 CDDA sectors
File Size : 9.96M
Bit Rate : 328k
Sample Encoding: MPEG audio (layer I, II or III)
Comments :
Title=the Big sleep
Artist=Flesh Torrent
Album=THE GOAT
Tracknumber=5
Year=2024-06-22
Genre=Metal
Discnumber=1



Register


Go to the top of the page
  Insert nick Quick quote
+Quote Post

Reply to this topicStart new topic
2 User(s) are reading this topic (2 Guests and 0 Anonymous Users)
0 Members:

 



- Lo-Fi Version Support form
Copyrights and abuse reports form
Time is now: 15th July 2024 - 21:40:32