Welcome Guest ( Log In | Register )

Объявления

* gmail.com упорно продолжает считать почту с нас "unsolicited" и отбивает в том числе и письма активации, поэтому просьба использовать альтернативные почтовые ящики.
------------
* gmail.com continues reject all mail from us as "unsolicited" (activation mails too) therefore please use alternate mail servers.

> Releases Upload / Добавление релизов

Добавить релиз тут / Click here to add release
Рекомендованные обменники / Recommended file shares

> Helpless Agony - Universal Deterioration (2024), Death Metal
post Jul 10 2024, 00:19:28
Post #1

Правь статус, ####!111
**************
Group: Металариец
Posts: 36,460
Releases: 27188
From: Г.Харьков
On Forums: 12 years 2 months
Thanks: 592717 time(s)
Ukraine


(IMG:https://metalarea.org/images/audiocovers/2024_Jul/acov_tid399330_thumb.jpg)

*Artist: Helpless Agony
*Album: Universal Deterioration
*Year: 2024
*Genre: Death Metal
*Country: United States (IMG:https://metalarea.org/forum/style_images/flags/United%20States.png)
*Format: mp3@CBR320kbps
*Size: 89MB

Tracklist:
1. Walking to Death's Door 03:21
2. The Cycle of Hell 02:49
3. Exploited by Spiders 03:02
4. Iconoclastic Beliefs 04:30
5. Meltdown 05:12
6. Shipwrecked Souls 02:07
7. Locked Box of Misery 03:55
8. Fractured Destiny 02:59
9. Deserved Torment 04:35
10. The Grand Fall 05:46
******************************
Total playing time: 38:16


(IMG:https://metalarea.org/images/youtube.png)

Extended info
Ron Sowal Unknown


Technical info
(IMG:https://metalarea.org/images/spectrogram/2024_Jul/be1bf0014cd3d387e6477ab4e43586e6.png)
Input File: 10 - The Grand Fall.mp3
Channels : 2
Sample Rate : 44100
Precision : 16-bit
Duration : 00:05:46.00 = 15258600 samples = 25950 CDDA sectors
File Size : 14.0M
Bit Rate : 324k
Sample Encoding: MPEG audio (layer I, II or III)
Comments :
Title=The Grand Fall
Artist=䌀氀椀昀昀 匀愀眀搀礀
Album=Universal Deterioration
Tracknumber=10
Year=2024-07-03
Genre=Metal
Discnumber=1



Register


Go to the top of the page
  Insert nick Quick quote
+Quote Post
 
Start new topic
Replies (1 - 1)
post Jul 11 2024, 03:54:52    Сейчас играет: Stolen Artwork For Cover
Post #2

Group: Дух
Posts: 3
Releases: 0
On Forums: 7 years 2 months
Thanks: 0 time(s)
United States


QUOTE(Samaritianin @ Jul 9 2024, 18:19:28) *
https://metalarea.org/images/audiocovers/20...99330_thumb.jpg

*Artist: Helpless Agony
*Album: Universal Deterioration
*Year: 2024
*Genre: Death Metal
*Country: United States https://metalarea.org/forum/style_images/fl...ed%20States.png
*Format: mp3@CBR320kbps
*Size: 89MB

Tracklist:
1. Walking to Death's Door 03:21
2. The Cycle of Hell 02:49
3. Exploited by Spiders 03:02
4. Iconoclastic Beliefs 04:30
5. Meltdown 05:12
6. Shipwrecked Souls 02:07
7. Locked Box of Misery 03:55
8. Fractured Destiny 02:59
9. Deserved Torment 04:35
10. The Grand Fall 05:46
******************************
Total playing time: 38:16


https://metalarea.org/images/youtube.png

Extended info
Ron Sowal Unknown


Technical info
https://metalarea.org/images/spectrogram/20...ab4e43586e6.png
Input File: 10 - The Grand Fall.mp3
Channels : 2
Sample Rate : 44100
Precision : 16-bit
Duration : 00:05:46.00 = 15258600 samples = 25950 CDDA sectors
File Size : 14.0M
Bit Rate : 324k
Sample Encoding: MPEG audio (layer I, II or III)
Comments :
Title=The Grand Fall
Artist=䌀氀椀昀昀 匀愀眀搀礀
Album=Universal Deterioration
Tracknumber=10
Year=2024-07-03
Genre=Metal
Discnumber=1


Go to the top of the page
  Insert nick Quick quote
+Quote Post

Reply to this topicStart new topic
1 User(s) are reading this topic (1 Guests and 0 Anonymous Users)
0 Members:

 



- Lo-Fi Version Support form
Copyrights and abuse reports form
Time is now: 24th July 2024 - 09:49:54