Welcome Guest ( Log In | Register )

Объявления

* gmail.com упорно продолжает считать почту с нас "unsolicited" и отбивает в том числе и письма активации, поэтому просьба использовать альтернативные почтовые ящики.
------------
* gmail.com continues reject all mail from us as "unsolicited" (activation mails too) therefore please use alternate mail servers.

> Releases Upload / Добавление релизов

Добавить релиз тут / Click here to add release
Рекомендованные обменники / Recommended file shares

> Evil Dungeon Crawler - In Praise Of Envus [ep] (2024), Black Metal
post Jul 10 2024, 04:34:43
Post #1

Правь статус, ####!111
**************
Group: Металариец
Posts: 9,265
Releases: 7497
On Forums: 13 years 7 months
Thanks: 132576 time(s)
Italy


(IMG:https://metalarea.org/images/audiocovers/2024_Jul/acov_tid399332_thumb.jpg)

*Artist: Evil Dungeon Crawler
*Album: In Praise Of Envus [ep]
*Year: 2024
*Genre: Black Metal
*Country: United Kingdom (IMG:https://metalarea.org/forum/style_images/flags/United%20Kingdom.png)
*Format: mp3@CBR320kbps
*Size: 61MB

Tracklist:
1.Prophet of False Hope 06:29
2.Amend 06:40
3.Evil Dungeon Crawler 03:51
4.The Final Stronghold Has Fallen 04:12
5.Uterine Rupture 02:34
6.Mourning in a Black Forest at Dawn 02:36
******************************
Total playing time: 26:22

Preview 1
(IMG:https://metalarea.org/images/youtube.png)

Technical info
(IMG:https://metalarea.org/images/spectrogram/2024_Jul/7c68885b4368f88ebd9aa2dd08b48690.png)
Input File: 5.Uterine Rupture.mp3
Channels : 2
Sample Rate : 44100
Precision : 16-bit
Duration : 00:02:34.66 = 6820330 samples = 11599.2 CDDA sectors
File Size : 7.17M
Bit Rate : 371k
Sample Encoding: MPEG audio (layer I, II or III)
Comments :
Title=Uterine Rupture
Artist=Evil Dungeon Crawler
Album=In Praise of Envus
Tracknumber=5/6
Year=2024
Discnumber=1/1



Register


Go to the top of the page
  Insert nick Quick quote
+Quote Post
 
Start new topic
Replies (1 - 1)
post Jul 10 2024, 14:18:55
Post #2

Правь статус, ####!111
**************
Group: Металариец
Posts: 2,850
Releases: 426
From: Bretagne
On Forums: 16 years 1 month
Thanks: 5357 time(s)
France


decent low-fi / raw black metal


Thanks:
(1) nemx,
Go to the top of the page
  Insert nick Quick quote
+Quote Post

Reply to this topicStart new topic
2 User(s) are reading this topic (2 Guests and 0 Anonymous Users)
0 Members:

 



- Lo-Fi Version Support form
Copyrights and abuse reports form
Time is now: 15th July 2024 - 21:23:41