Welcome Guest ( Log In | Register )

Объявления

* gmail.com упорно продолжает считать почту с нас "unsolicited" и отбивает в том числе и письма активации, поэтому просьба использовать альтернативные почтовые ящики.
------------
* gmail.com continues reject all mail from us as "unsolicited" (activation mails too) therefore please use alternate mail servers.

> Releases Upload / Добавление релизов

Добавить релиз тут / Click here to add release
Рекомендованные обменники / Recommended file shares

 
Reply to this topicStart new topic
> Terminal Sun - All That Will Burn Is Already On Fire (2024), Death Metal
post Jul 10 2024, 04:56:07
Post #1

Правь статус, ####!111
**************
Group: Металариец
Posts: 36,460
Releases: 27188
From: Г.Харьков
On Forums: 12 years 2 months
Thanks: 592718 time(s)
Ukraine


(IMG:https://metalarea.org/images/audiocovers/2024_Jul/acov_tid399333_thumb.jpg)

*Artist: Terminal Sun
*Album: All That Will Burn Is Already On Fire
*Year: 2024
*Genre: Death Metal
*Country: United Kingdom (IMG:https://metalarea.org/forum/style_images/flags/United%20Kingdom.png)
*Format: mp3@CBR320kbps
*Size: 132MB

Tracklist:
1. Catastrophic Error 01:40
2. AZ5 04:33
3. The Liquidators (and the Liquidation of the Consequences of the Chernobyl Accident) 06:19
4. Metamorph 10:26
5. Macready's Last Stand 02:07
6. All That Will Burn Is Already on Fire 06:32
7. The Spirit of Dark and Lonely Water Part I [Narrative] 03:13
8. The Spirit of Dark and Lonely Water Part II 03:26
9. Fragments 05:29
10. Parallels 02:20
11. The Space Between Two Deaths 08:44
******************************
Total playing time: 54:49



Extended info
Kevin Johnson Bass
Daryl Bishop Drums
Gary Spooner Guitars
See also: Reprobate
Adam Walker Guitars
See also: Opinicus
Simon Lee Vocals
See also: Reprobate


Technical info
(IMG:https://metalarea.org/images/spectrogram/2024_Jul/a025552a97ae3f0f384815595224e220.png)
Input File: 09. Fragments.mp3
Channels : 2
Sample Rate : 44100
Precision : 16-bit
Duration : 00:05:29.40 = 14526496 samples = 24704.9 CDDA sectors
File Size : 13.8M
Bit Rate : 336k
Sample Encoding: MPEG audio (layer I, II or III)
Comments :
Title=Fragments
Artist=Terminal Sun
Album=All That Will Burn Is Already on Fire
Tracknumber=09/11
Year=2024
Genre=Progressive Death/Black
Discnumber=1/1



Register


Go to the top of the page
  Insert nick Quick quote
+Quote Post

Reply to this topicStart new topic
1 User(s) are reading this topic (1 Guests and 0 Anonymous Users)
0 Members:

 



- Lo-Fi Version Support form
Copyrights and abuse reports form
Time is now: 24th July 2024 - 10:26:20