Welcome Guest ( Log In | Register )

Объявления

* gmail.com упорно продолжает считать почту с нас "unsolicited" и отбивает в том числе и письма активации, поэтому просьба использовать альтернативные почтовые ящики.
------------
* gmail.com continues reject all mail from us as "unsolicited" (activation mails too) therefore please use alternate mail servers.

> Releases Upload / Добавление релизов

Добавить релиз тут / Click here to add release
Рекомендованные обменники / Recommended file shares

 
Reply to this topicStart new topic
> Anser - Midsummer Misery (2024), Post-Black Metal/Blackgaze
post Jul 10 2024, 05:21:48
Post #1

Правь статус, ####!111
**************
Group: Металариец
Posts: 9,316
Releases: 7546
On Forums: 13 years 8 months
Thanks: 133468 time(s)
Italy


(IMG:https://metalarea.org/images/audiocovers/2024_Jul/acov_tid399334_thumb.jpg)

*Artist: Anser
*Album: Midsummer Misery
*Year: 2024
*Genre: Post-Black Metal/Blackgaze
*Country: United States (IMG:https://metalarea.org/forum/style_images/flags/United%20States.png)
*Format: mp3@CBR320kbps
*Size: 100MB

Tracklist:
1.Intro 01:00
2.Late Stage Apathy 04:50
3.Justify Myself 03:07
4.Cloud's Lament 09:16
5.Death by Existence 04:34
6.Another Night of Grief 04:58
7.Lung Rot 03:14
8.None! 04:45
9.Yesterday is Today is Tomorrow 07:25
******************************
Total playing time: 43:09



Technical info
(IMG:https://metalarea.org/images/spectrogram/2024_Jul/000c06103e5e461cc8521e25a09d1bc0.png)
Input File: 5.Death by Existence.mp3
Channels : 2
Sample Rate : 44100
Precision : 16-bit
Duration : 00:04:34.49 = 12104833 samples = 20586.5 CDDA sectors
File Size : 11.2M
Bit Rate : 326k
Sample Encoding: MPEG audio (layer I, II or III)
Comments :
Title=Death by Existence
Artist=Anser
Album=Midsummer Misery
Tracknumber=5/9
Year=2024
Discnumber=1/1



Register


Go to the top of the page
  Insert nick Quick quote
+Quote Post

Reply to this topicStart new topic
1 User(s) are reading this topic (1 Guests and 0 Anonymous Users)
0 Members:

 



- Lo-Fi Version Support form
Copyrights and abuse reports form
Time is now: 24th July 2024 - 10:44:17