Welcome Guest ( Log In | Register )

Объявления

* gmail.com упорно продолжает считать почту с нас "unsolicited" и отбивает в том числе и письма активации, поэтому просьба использовать альтернативные почтовые ящики.
------------
* gmail.com continues reject all mail from us as "unsolicited" (activation mails too) therefore please use alternate mail servers.

> Releases Upload / Добавление релизов

Добавить релиз тут / Click here to add release
Рекомендованные обменники / Recommended file shares

 
Reply to this topicStart new topic
> Ghül - Minas Morgul [ep] (2024), Black Metal (D5)
post Jul 10 2024, 05:31:12
Post #1

Правь статус, ####!111
**************
Group: Металариец
Posts: 9,265
Releases: 7497
On Forums: 13 years 7 months
Thanks: 132578 time(s)
Italy


(IMG:https://metalarea.org/images/audiocovers/2024_Jul/acov_tid399335_thumb.jpg)

*Artist: Ghül
*Album: Minas Morgul [ep]
*Year: 2024
*Genre: Black Metal
*Country: United Kingdom (IMG:https://metalarea.org/forum/style_images/flags/United%20Kingdom.png)
*Format: mp3@CBR320kbps
*Size: 66MB

Tracklist:
1.Minas Morgul I 09:41
2.Minas Morgul II 07:17
3.Minas Morgul III 04:40
4.Minas Morgul IV 07:25
******************************
Total playing time: 29:03



Technical info
(IMG:https://metalarea.org/images/spectrogram/2024_Jul/94707d4f12801f5fb7c240895c46edc5.png)
Input File: Minas Morgul IV.mp3
Channels : 2
Sample Rate : 44100
Precision : 16-bit
Duration : 00:07:25.10 = 19628998 samples = 33382.6 CDDA sectors
File Size : 17.9M
Bit Rate : 322k
Sample Encoding: MPEG audio (layer I, II or III)
Comments :
Title=Minas Morgul IV
Artist=Ghül
Album=Minas Morgul
Tracknumber=4/4
Year=2024
Discnumber=1/1



Register


Go to the top of the page
  Insert nick Quick quote
+Quote Post

Reply to this topicStart new topic
2 User(s) are reading this topic (2 Guests and 0 Anonymous Users)
0 Members:

 



- Lo-Fi Version Support form
Copyrights and abuse reports form
Time is now: 15th July 2024 - 21:56:52