Welcome Guest ( Log In | Register )

Объявления

* gmail.com упорно продолжает считать почту с нас "unsolicited" и отбивает в том числе и письма активации, поэтому просьба использовать альтернативные почтовые ящики.
------------
* gmail.com continues reject all mail from us as "unsolicited" (activation mails too) therefore please use alternate mail servers.

> Releases Upload / Добавление релизов

Добавить релиз тут / Click here to add release
Рекомендованные обменники / Recommended file shares

> Wallop - Hell On Wheels (2024), Heavy Metal
post Jul 10 2024, 11:23:54
Post #1

Правь статус, ####!111
**************
Group: Металариец
Posts: 36,460
Releases: 27188
From: Г.Харьков
On Forums: 12 years 2 months
Thanks: 592724 time(s)
Ukraine


(IMG:https://metalarea.org/images/audiocovers/2024_Jul/acov_tid399336_thumb.jpg)

*Artist: Wallop
*Album: Hell On Wheels
*Year: 2024
*Genre: Heavy Metal
*Country: Germany (IMG:https://metalarea.org/forum/style_images/flags/Germany.png)
*Format: mp3@CBR320kbps
*Size: 93MB

Tracklist:
1. Battle Cry 03:52
2. World on Fire 03:46
3. Hellfire 04:40
4. American 4-4-0 04:59
5. Stand Up 02:42
6. Hell on Wheels 04:11
7. Strike Down 03:51
8. Darkness Comes Rising 03:51
9. Blinded Eyes 04:40
10. One Track Mind 03:02
******************************
Total playing time: 39:34



Extended info
Stefan Fleischer Bass (1983-1987, 2018-present)
See also: Scene X Dream, ex-Lightmare, ex-Diamonds
Stefan Arnold Drums (1983-1987, 2018-present)
See also: ex-Capricorn, ex-X-Mas Project, ex-Grinder, ex-Grave Digger
Andreas Lorz Guitars (1983-1987, 2018-present)
See also: Scene X Dream, New Day Rising
Mikk Wega Vocals (1984-1985, 2018-present)
See also: ex-Enforce, ex-Black Spirit (GER)


Technical info
(IMG:https://metalarea.org/images/spectrogram/2024_Jul/39ff4124fcfc476d54dc9a8cef86065f.png)
Input File: 09 - Binded Eyes.mp3
Channels : 2
Sample Rate : 44100
Precision : 16-bit
Duration : 00:04:40.00 = 12348000 samples = 21000 CDDA sectors
File Size : 11.4M
Bit Rate : 327k
Sample Encoding: MPEG audio (layer I, II or III)
Comments :
Title=Binded Eyes
Artist=Wallop
Album=Hell on Wheels
Tracknumber=9
Year=2024-07-11
Genre=Rock
Discnumber=1



Register


Go to the top of the page
  Insert nick Quick quote
+Quote Post
 
Start new topic
Replies (1 - 1)
post Jul 11 2024, 15:48:19
Post #2

Друг Уточек
******
Group: Металариец
Posts: 510
Releases: 65
From: Cassettevania
On Forums: 15 years 7 months
Thanks: 396 time(s)
Russian Federation


Уже и не помню что эта группа играла на альбоме 1985 года. да и 2020 тоже. трек "Stand Up" понравился. Напомнил "Tesla - Comin' Atcha Live". и трек "One Track Mind" тоже хорош, под Heavy/Speed. побольше бы такого и было бы супер. спасибо!
Go to the top of the page
  Insert nick Quick quote
+Quote Post

Reply to this topicStart new topic
2 User(s) are reading this topic (1 Guests and 0 Anonymous Users)
1 Members: adeng

 



- Lo-Fi Version Support form
Copyrights and abuse reports form
Time is now: 24th July 2024 - 11:07:33