Welcome Guest ( Log In | Register )

Объявления

* gmail.com упорно продолжает считать почту с нас "unsolicited" и отбивает в том числе и письма активации, поэтому просьба использовать альтернативные почтовые ящики.
------------
* gmail.com continues reject all mail from us as "unsolicited" (activation mails too) therefore please use alternate mail servers.

> Releases Upload / Добавление релизов

Добавить релиз тут / Click here to add release
Рекомендованные обменники / Recommended file shares

 
Reply to this topicStart new topic
> Labyrinth - Unforeseen Consequences [ep] (2024), Thrash Metal (D)
post Jul 10 2024, 11:50:06
Post #1

Правь статус, ####!111
**************
Group: Металариец
Posts: 36,460
Releases: 27188
From: Г.Харьков
On Forums: 12 years 2 months
Thanks: 592712 time(s)
Ukraine


(IMG:https://metalarea.org/images/audiocovers/2024_Jul/acov_tid399337_thumb.jpg)

*Artist: Labyrinth
*Album: Unforeseen Consequences [ep]
*Year: 2024
*Genre: Thrash Metal
*Country: United States (IMG:https://metalarea.org/forum/style_images/flags/United%20States.png)
*Format: mp3@CBR320kbps
*Size: 43MB

Tracklist:
1. Tortured
2. Questionable Ethics
3. Theseus (1501 B.C.)
4. The Prophet of Time
******************************
Total playing time: 17:58


(IMG:https://metalarea.org/images/youtube.png)

Extended info
Tommy Crawford Bass, Vocals (backing) (2021-2022, 2024-present)
See also: Para-Noid
Jorge Montaño Vocals, Guitars (lead) (2021-present)
See also: ex-Raxik, ex-Toxic Street, ex-Exitium
Matthew Fernandez Drums, Vocals (backing) (2022-2023, 2024-present)
See also: Annihilist
CJ Ackerman Guitars, Vocals (backing) (2023-present)


Technical info
(IMG:https://metalarea.org/images/spectrogram/2024_Jul/e29041a8154952ad1b9c34e7621da9d0.png)
Input File: 04 - The Prophet of Time.mp3
Channels : 2
Sample Rate : 44100
Precision : 16-bit
Duration : 00:05:08.00 = 13582800 samples = 23100 CDDA sectors
File Size : 12.7M
Bit Rate : 330k
Sample Encoding: MPEG audio (layer I, II or III)
Comments :
Title=The Prophet of Time
Artist=Labyrinth
Album=Unforeseen Consequences
Tracknumber=4
Year=2024-07-11
Genre=Metal
Discnumber=1



Register


Go to the top of the page
  Insert nick Quick quote
+Quote Post

Reply to this topicStart new topic
2 User(s) are reading this topic (2 Guests and 0 Anonymous Users)
0 Members:

 



- Lo-Fi Version Support form
Copyrights and abuse reports form
Time is now: 24th July 2024 - 09:04:57