Welcome Guest ( Log In | Register )

Объявления

* gmail.com упорно продолжает считать почту с нас "unsolicited" и отбивает в том числе и письма активации, поэтому просьба использовать альтернативные почтовые ящики.
------------
* gmail.com continues reject all mail from us as "unsolicited" (activation mails too) therefore please use alternate mail servers.

> Releases Upload / Добавление релизов

Добавить релиз тут / Click here to add release
Рекомендованные обменники / Recommended file shares

 
Reply to this topicStart new topic
> Wallop - Alps On Fire (2020), Heavy Metal
post Jul 10 2024, 12:05:51
Post #1

Правь статус, ####!111
**************
Group: Металариец
Posts: 36,411
Releases: 27145
From: Г.Харьков
On Forums: 12 years 2 months
Thanks: 591282 time(s)
Ukraine


(IMG:https://metalarea.org/images/audiocovers/2024_Jul/acov_tid399338_thumb.jpg)

*Artist: Wallop
*Album: Alps On Fire
*Year: 2020
*Genre: Heavy Metal
*Country: Germany (IMG:https://metalarea.org/forum/style_images/flags/Germany.png)
*Format: mp3@CBR320kbps
*Size: 117MB

Tracklist:
1. Running Wild 03:43
2. Missing in Action 03:56
3. Lack of Power 04:02
4. Metallic Alps 04:06
5. Reveal the Lies 04:27
6. Monsters 02:59
7. Stealthy World 04:32
8. Idols Die Too 04:43
9. 69 04:04
10. Fun for the Nun 03:33
11. Metallize 03:03
12. Crash, Bang, Wallop (Raven cover) 03:03
13. Wall of Sound 04:05
******************************
Total playing time: 50:16



Extended info
Re-Recorded+Bonus
Stefan Fleischer Bass
Stefan Arnold Drums
Andreas Lorz Guitars
Mikk Wega Vocals


Technical info
(IMG:https://metalarea.org/images/spectrogram/2024_Jul/83470eb724c0fabed4bfa845c50dbeac.png)
Input File: 07 - Stealthy World.mp3
Channels : 2
Sample Rate : 44100
Precision : 16-bit
Duration : 00:04:32.00 = 11995200 samples = 20400 CDDA sectors
File Size : 11.1M
Bit Rate : 326k
Sample Encoding: MPEG audio (layer I, II or III)
Comments :
Title=Stealthy World
Artist=Wallop
Album=Alps on Fire
Tracknumber=7
Year=2020-04-24
Genre=Metal
Discnumber=1



Register


Go to the top of the page
  Insert nick Quick quote
+Quote Post

Reply to this topicStart new topic
1 User(s) are reading this topic (1 Guests and 0 Anonymous Users)
0 Members:

 



- Lo-Fi Version Support form
Copyrights and abuse reports form
Time is now: 15th July 2024 - 21:11:00