Welcome Guest ( Log In | Register )

Объявления

* gmail.com упорно продолжает считать почту с нас "unsolicited" и отбивает в том числе и письма активации, поэтому просьба использовать альтернативные почтовые ящики.
------------
* gmail.com continues reject all mail from us as "unsolicited" (activation mails too) therefore please use alternate mail servers.

> Releases Upload / Добавление релизов

Добавить релиз тут / Click here to add release
Рекомендованные обменники / Recommended file shares

> Cave - Cave III (2024), Avant-Garde Death/Doom Metal
post Jul 10 2024, 12:24:51
Post #1

Правь статус, ####!111
**************
Group: Металариец
Posts: 36,412
Releases: 27145
From: Г.Харьков
On Forums: 12 years 2 months
Thanks: 591282 time(s)
Ukraine


(IMG:https://metalarea.org/images/audiocovers/2024_Jul/acov_tid399339_thumb.jpg)

*Artist: Cave
*Album: Cave III
*Year: 2024
*Genre: Avant-Garde Death/Doom Metal
*Country: United States (IMG:https://metalarea.org/forum/style_images/flags/United%20States.png)
*Format: mp3@CBR320kbps
*Size: 91MB

Tracklist:
1. Prophecy Revealed 05:28
2. Enchanted Tendencies 05:32
3. Beyond Abstraction 06:02
4. Ingenious Concealment 06:15
5. Antiquity Superstition 04:53
6. Pillar 05:37
7. Unifying Worship 04:56
******************************
Total playing time: 38:43



Extended info
FLAC-Rip
Cave All instruments, Vocals (2018-present)
See also: 54R, Acausal Intrusion, Acrid Tomb, Ange de la Mort, Ar'lyxkq'wr, Black Spells, Bloodsick, Burial Curse, Cloud of Flies, Conjuration Trance, Corpse Arise, Cynocephalus, Dragón Blanco, Draug, Dussage, Dwelling Below, Eats Aids, Er Murazor, Erusopxecinomeddetaeperhguorhtserisednamuhllafonoitacidarecitametsys, Evaporated Sores, Exsanguinment, Feral Lord, Filtheater, Flesh Configuration, Flittering, Forestfather, Gastric Phantasm, Hollowed Idols, Illithilich, Inner Sphere, Irradiated Marrow, Ishimura, Kamikaze Pilots, Louching, Maggot Crown, Morgue Walker, Mountain of Beard, Myrkridia, Obsidian Hooves, Occulsed, Out of the Mouth of Graves, Paranoid Schizophrenia, Psionic Madness, Qqgcguvhjn, Raum, Sermon of Rot, Shokushu Goukan, Slog, Spawning Vats, Subterranean Birthright, Tacit Annihilation, Tendrils Loom Overhead as Moss Below, The Breaking Wheel, Ultima Weapon, Uzumaki, Vertebrae Fetish Totem, Void Blight, Xvart, Yzordderrex, Zombie Raiders, Zvylpwkua, Scowl, ex-Immaculate Molestation, ex-Ithaqua, ex-The Plague Doctor, ex-Your End, ex-Vomitwolves, A Wall, Bigstrut, Boiled Tongue, Coast Trash, Confined Space, Dragunov, Gestation Curiosity, Great Depression, Hans Assman, Harmacist, Homie Kisses, Hymn, Inalienable, Irregular Vibrations, Looming, Nightcall, Old Woman with No Teeth, Oral Techniques, Popiel, Regress, Ropeman, Scourge Whip, Terror Trance Intrusion Madness, The Incredible Melting Man, Thousand Cuts, Ukakuja, Ull Equip, Waste Management '81, weathervacation, ex-Cosmic Atrophy, ex-Gurthang, ex-Herculean Death, ex-Oshiego, ex-Putrefying Cadaverment, ex-Vixenta, ex-Bunker Buster, ex-Driven by Suffering, ex-I am Spartacus, ex-Markmikemoran, ex-Recovery Period, ex-S & M Party, ex-Seppuku, ex-The Men Behind the Sun, ex-The Nautilus


Technical info
(IMG:https://metalarea.org/images/spectrogram/2024_Jul/41cdc20ab800e1d3fa2f2edfbae97a00.png)
Input File: Cave - Cave III - 07 Unifying Worship.mp3
Channels : 2
Sample Rate : 44100
Precision : 16-bit
Duration : 00:04:56.45 = 13073577 samples = 22234 CDDA sectors
File Size : 12.1M
Bit Rate : 327k
Sample Encoding: MPEG audio (layer I, II or III)
Comments :
Title=Unifying Worship
Artist=Cave
Album=Cave III
Tracknumber=7
Year=2024



Register


Go to the top of the page
  Insert nick Quick quote
+Quote Post
 
Start new topic
Replies (1 - 3)
post Jul 10 2024, 15:37:41
Post #2

Правь статус, ####!111
**************
Group: Металариец
Posts: 2,850
Releases: 426
From: Bretagne
On Forums: 16 years 1 month
Thanks: 5357 time(s)
France


damn!! I didn't expect this hateful, noisy & dissonant death/doom (IMG:style_emoticons/default/20.gif) (IMG:style_emoticons/default/17.gif)

(IMG:https://i.imgflip.com/8whlhd.jpg)


Thanks:
(1) Bannanik,
Go to the top of the page
  Insert nick Quick quote
+Quote Post
post Jul 11 2024, 08:44:44
Post #3

Два Литра
**
Group: Завсегдатай
Posts: 134
Releases: 0
From: Рыгалово
On Forums: 1 year 9 months
Thanks: 107 time(s)
Unknown


Очень хаотичная и сумбурная десуха с диссонансами, нечленораздельным вокалом и хаосом. Очень напоминает кровавый понос. Дума не обнаружено.
Go to the top of the page
  Insert nick Quick quote
+Quote Post
post Jul 11 2024, 10:10:49
Post #4

Мегаманьяк
***********
Group: Металариец
Posts: 1,921
Releases: 105
From: Санкт-Петербург
On Forums: 18 years 1 month
Thanks: 5321 time(s)
Russian Federation


ЦИТАТА(Perkele @ 11th July 2024 - 10:44:44) *
Очень хаотичная и сумбурная десуха с диссонансами, нечленораздельным вокалом и хаосом.

В принципе, вполне исчерпыаающая характеристика для любого из слышанных мной проектов (см. под спойлером - хотел было подсчитать их, но не стал рисковать) этого страдающего "творческой“ диареей невменяемого.


Thanks:
(1) ingram,
Go to the top of the page
  Insert nick Quick quote
+Quote Post

Reply to this topicStart new topic
1 User(s) are reading this topic (1 Guests and 0 Anonymous Users)
0 Members:

 



- Lo-Fi Version Support form
Copyrights and abuse reports form
Time is now: 15th July 2024 - 21:21:06