Welcome Guest ( Log In | Register )

Объявления

* gmail.com упорно продолжает считать почту с нас "unsolicited" и отбивает в том числе и письма активации, поэтому просьба использовать альтернативные почтовые ящики.
------------
* gmail.com continues reject all mail from us as "unsolicited" (activation mails too) therefore please use alternate mail servers.

> Releases Upload / Добавление релизов

Добавить релиз тут / Click here to add release
Рекомендованные обменники / Recommended file shares

> Inscribed - In Silent Oblivion [ep] (2024), Death/Thrash Metal
post Jul 10 2024, 12:40:21
Post #1

Правь статус, ####!111
**************
Group: Металариец
Posts: 36,412
Releases: 27150
From: Г.Харьков
On Forums: 12 years 2 months
Thanks: 591289 time(s)
Ukraine


(IMG:https://metalarea.org/images/audiocovers/2024_Jul/acov_tid399340_thumb.jpg)

*Artist: Inscribed
*Album: In Silent Oblivion [ep]
*Year: 2024
*Genre: Death/Thrash Metal
*Country: United States (IMG:https://metalarea.org/forum/style_images/flags/United%20States.png)
*Format: mp3@CBR320kbps
*Size: 26MB

Tracklist:
1. Oracle of Chaos 03:22
2. Silent Oblivion 03:48
3. Empress of Cold 03:53
******************************
Total playing time: 11:03



Extended info
Evie Austin Bass (2021-present)
See also: Cemetery Filth, Faethom
Lucas Moore Vocals, Drums (2021-present)
Mario Alvarez Guitars (2022-present)


Technical info
(IMG:https://metalarea.org/images/spectrogram/2024_Jul/370bfa3140ae2adc1ccf91e61714f6f4.png)
Input File: 03 - Empress of Cold.mp3
Channels : 2
Sample Rate : 44100
Precision : 16-bit
Duration : 00:03:53.00 = 10275300 samples = 17475 CDDA sectors
File Size : 9.50M
Bit Rate : 326k
Sample Encoding: MPEG audio (layer I, II or III)
Comments :
Title=Empress of Cold
Artist=Inscribed
Album=In Silent Oblivion
Tracknumber=3
Year=2024-07-10
Genre=Alternative
Discnumber=1



Register


Go to the top of the page
  Insert nick Quick quote
+Quote Post
 
Start new topic
Replies (1 - 1)
post Jul 10 2024, 16:44:30
Post #2

Правь статус, ####!111
**************
Group: Металариец
Posts: 2,850
Releases: 426
From: Bretagne
On Forums: 16 years 1 month
Thanks: 5357 time(s)
France


thanks !! very good balance between old school/technical death metal & old school thrash (IMG:style_emoticons/default/20.gif) (IMG:style_emoticons/default/20.gif)
Go to the top of the page
  Insert nick Quick quote
+Quote Post

Reply to this topicStart new topic
1 User(s) are reading this topic (1 Guests and 0 Anonymous Users)
0 Members:

 



- Lo-Fi Version Support form
Copyrights and abuse reports form
Time is now: 15th July 2024 - 22:36:10