Welcome Guest ( Log In | Register )

Объявления

* gmail.com упорно продолжает считать почту с нас "unsolicited" и отбивает в том числе и письма активации, поэтому просьба использовать альтернативные почтовые ящики.
------------
* gmail.com continues reject all mail from us as "unsolicited" (activation mails too) therefore please use alternate mail servers.

> Releases Upload / Добавление релизов

Добавить релиз тут / Click here to add release
Рекомендованные обменники / Recommended file shares

> Gloria Perpetua - The Darkside We Wanna Hide (2024), Heavy/Power Metal
post Jul 10 2024, 13:18:20
Post #1

Правь статус, 616
**************
Group: Металариец
Posts: 11,010
Releases: 8965
From: 55°35’N 38°08’E
On Forums: 16 years 1 week
Thanks: 159613 time(s)
Russian Federation


(IMG:https://metalarea.org/images/audiocovers/2024_Jul/acov_tid399341_thumb.jpg)

*Artist: Gloria Perpetua
*Album: The Darkside We Wanna Hide
*Year: 2024
*Genre: Heavy/Power Metal
*Country: Brazil (IMG:https://metalarea.org/forum/style_images/flags/Brazil.png)
*Format: mp3@CBR320kbps
*Size: 119MB

Tracklist:
1.Let There Be Darkness... 00:50
2.Beyond the Darkness Portal 04:56
3.Have You Forsaken the Cross? 04:44
4.Mothers of Jerusalem 05:18
5.The Angels Are Calling 05:05
6.The Rape of Gaia 03:53
7.The Architect 06:12
8.The Key of Life 05:55
9.The Way of a Warrior 06:21
10.The Sick Cycle to the Death 03:13
******************************
Total playing time: 46:27

(IMG:https://metalarea.org/images/youtube.png)
(IMG:https://metalarea.org/images/youtube.png)
(IMG:https://metalarea.org/images/youtube.png)

Extended info
CD, Shinigami Records
FLAC-Rip


Technical info
(IMG:https://metalarea.org/images/spectrogram/2024_Jul/a8a3abf9ad5bd72655425cbde8ec6671.png)
Input File: 02 Beyond the Darkness Portal.mp3
Channels : 2
Sample Rate : 44100
Precision : 16-bit
Duration : 00:04:56.22 = 13063390 samples = 22216.6 CDDA sectors
File Size : 12.0M
Bit Rate : 324k
Sample Encoding: MPEG audio (layer I, II or III)
Comments :
Title=Beyond the Darkness Portal
Artist=Gloria Perpetua
Album=The Darkside We Wanna Hide
Tracknumber=2
Year=2024
Genre=Metal
Discnumber=1/1



Register


Go to the top of the page
  Insert nick Quick quote
+Quote Post
 
Start new topic
Replies (1 - 1)
post Jul 10 2024, 13:42:03
Post #2

Правь статус, 616
**************
Group: Металариец
Posts: 11,010
Releases: 8965
From: 55°35’N 38°08’E
On Forums: 16 years 1 week
Thanks: 159613 time(s)
Russian Federation


FLAC

Register


Go to the top of the page
  Insert nick Quick quote
+Quote Post

Reply to this topicStart new topic
2 User(s) are reading this topic (2 Guests and 0 Anonymous Users)
0 Members:

 



- Lo-Fi Version Support form
Copyrights and abuse reports form
Time is now: 15th July 2024 - 22:14:33