Welcome Guest ( Log In | Register )

Объявления

* gmail.com упорно продолжает считать почту с нас "unsolicited" и отбивает в том числе и письма активации, поэтому просьба использовать альтернативные почтовые ящики.
------------
* gmail.com continues reject all mail from us as "unsolicited" (activation mails too) therefore please use alternate mail servers.

> Releases Upload / Добавление релизов

Добавить релиз тут / Click here to add release
Рекомендованные обменники / Recommended file shares

 
Reply to this topicStart new topic
> Dunerider - Long Trip (2024), Sludge/Stoner/Doom Metal
post Jul 10 2024, 13:43:45
Post #1

Serial Uploader
Group Icon
Group: V.I.P
Posts: 42,944
Releases: 41005
From: Lithuania
On Forums: 16 years 1 month
Thanks: 526988 time(s)
Lithuania


(IMG:https://metalarea.org/images/audiocovers/2024_Jul/acov_tid399342_thumb.jpg)

*Artist: Dunerider
*Album: Long Trip
*Year: 2024
*Genre: Sludge/Stoner/Doom Metal
*Country: France (IMG:https://metalarea.org/forum/style_images/flags/France.png)
*Format: mp3@VBR285kbps
*Size: 110MB

Tracklist:
1. Death Trip 06:01
2. Stone Rider 04:18
3. Ride Eternity 07:24
4. Long Way Get High 08:15
5. Hoping Quicksands 07:48
6. At Summit 08:10
7. Wizard Valley 11:46
******************************
Total playing time: 53:42


Preview 2

(IMG:https://metalarea.org/images/youtube.png)

Technical info
(IMG:https://metalarea.org/images/spectrogram/2024_Jul/080952834456d1823a58210d5121c56a.png)
Input File: 04. Long way get high.mp3
Channels : 2
Sample Rate : 44100
Precision : 16-bit
Duration : 00:08:15.88 = 21868396 samples = 37191.1 CDDA sectors
File Size : 17.9M
Bit Rate : 289k
Sample Encoding: MPEG audio (layer I, II or III)
Comments :
Title=Long way get high
Artist=Dunerider
Album=Long trip
Tracknumber=4/7
Year=2024
Discnumber=1/1



Register


Go to the top of the page
  Insert nick Quick quote
+Quote Post

Reply to this topicStart new topic
1 User(s) are reading this topic (1 Guests and 0 Anonymous Users)
0 Members:

 



- Lo-Fi Version Support form
Copyrights and abuse reports form
Time is now: 15th July 2024 - 21:01:13