Welcome Guest ( Log In | Register )

Объявления

* gmail.com упорно продолжает считать почту с нас "unsolicited" и отбивает в том числе и письма активации, поэтому просьба использовать альтернативные почтовые ящики.
------------
* gmail.com continues reject all mail from us as "unsolicited" (activation mails too) therefore please use alternate mail servers.

> Releases Upload / Добавление релизов

Добавить релиз тут / Click here to add release
Рекомендованные обменники / Recommended file shares

 
Reply to this topicStart new topic
> Bongoloid - Demonic Bongolic Cannabinoise [ep] (2022), Stoner/Doom Metal
post Jul 10 2024, 13:54:34
Post #1

Serial Uploader
Group Icon
Group: V.I.P
Posts: 42,944
Releases: 41005
From: Lithuania
On Forums: 16 years 1 month
Thanks: 526992 time(s)
Lithuania


(IMG:https://metalarea.org/images/audiocovers/2024_Jul/acov_tid399343_thumb.jpg)

*Artist: Bongoloid
*Album: Demonic Bongolic Cannabinoise [ep]
*Year: 2022
*Genre: Stoner/Doom Metal
*Country: Argentina (IMG:https://metalarea.org/forum/style_images/flags/Argentina.png)
*Format: mp3@CBR320kbps
*Size: 45MB

Tracklist:
1. By The Lighter And The Bowl 06:37
2. The Altar Of The God Of Bong 03:15
3. The Color Of Ashes 06:24
4. Smoke & Mirrors 04:07
******************************
Total playing time: 20:23


(IMG:https://metalarea.org/images/youtube.png)

Technical info
(IMG:https://metalarea.org/images/spectrogram/2024_Jul/cfad0a93eceb906c416375ea93124f0a.png)
Input File: 02. The Altar Of The God Of Bong.mp3
Channels : 2
Sample Rate : 48000
Precision : 16-bit
Duration : 00:03:15.07 = 9363456 samples ~ 14630.4 CDDA sectors
File Size : 7.81M
Bit Rate : 320k
Sample Encoding: MPEG audio (layer I, II or III)
Comments :
Title=The Altar Of The God Of Bong
Artist=Bongoloid
Album=Demonic Bongolic Cannabinoise
Tracknumber=2
Year=2022
Genre=Rock



Register


Go to the top of the page
  Insert nick Quick quote
+Quote Post

Reply to this topicStart new topic
2 User(s) are reading this topic (2 Guests and 0 Anonymous Users)
0 Members:

 



- Lo-Fi Version Support form
Copyrights and abuse reports form
Time is now: 15th July 2024 - 22:39:08