Welcome Guest ( Log In | Register )

Объявления

* gmail.com упорно продолжает считать почту с нас "unsolicited" и отбивает в том числе и письма активации, поэтому просьба использовать альтернативные почтовые ящики.
------------
* gmail.com continues reject all mail from us as "unsolicited" (activation mails too) therefore please use alternate mail servers.

> Releases Upload / Добавление релизов

Добавить релиз тут / Click here to add release
Рекомендованные обменники / Recommended file shares

 
Reply to this topicStart new topic
> Bongoloid - The Black Hana Tales (2019), Stoner/Doom Metal
post Jul 10 2024, 14:04:08
Post #1

Serial Uploader
Group Icon
Group: V.I.P
Posts: 42,944
Releases: 41005
From: Lithuania
On Forums: 16 years 1 month
Thanks: 526989 time(s)
Lithuania


(IMG:https://metalarea.org/images/audiocovers/2024_Jul/acov_tid399344_thumb.jpg)

*Artist: Bongoloid
*Album: The Black Hana Tales
*Year: 2019
*Genre: Stoner/Doom Metal
*Country: Israel (IMG:https://metalarea.org/forum/style_images/flags/Israel.png)
*Format: mp3@CBR320kbps
*Size: 124MB

Tracklist:
1. Passmethebong 12:36
2. The Dope Dopers 08:52
3. Sevibong 07:07
4. Boof Merkazit / Haravot / Haflala 09:19
5. Spasiva Sativa 03:48
6. Escape From Sobibong 12:34
******************************
Total playing time: 54:16


(IMG:https://metalarea.org/images/youtube.png)

Technical info
(IMG:https://metalarea.org/images/spectrogram/2024_Jul/721c6529ed02fddddde09317def9bd89.png)
Input File: 04. Boof Merkazit - Haravot - Haflala.mp3
Channels : 2
Sample Rate : 44100
Precision : 16-bit
Duration : 00:09:19.21 = 24661073 samples = 41940.6 CDDA sectors
File Size : 22.6M
Bit Rate : 323k
Sample Encoding: MPEG audio (layer I, II or III)
Comments :
Title=Boof Merkazit / Haravot / Haflala
Artist=Bongoloid
Album=The Black Hana Tales
Tracknumber=4
Year=2019



Register


Go to the top of the page
  Insert nick Quick quote
+Quote Post

Reply to this topicStart new topic
1 User(s) are reading this topic (1 Guests and 0 Anonymous Users)
0 Members:

 



- Lo-Fi Version Support form
Copyrights and abuse reports form
Time is now: 15th July 2024 - 21:25:31