Welcome Guest ( Log In | Register )

Объявления

* gmail.com упорно продолжает считать почту с нас "unsolicited" и отбивает в том числе и письма активации, поэтому просьба использовать альтернативные почтовые ящики.
------------
* gmail.com continues reject all mail from us as "unsolicited" (activation mails too) therefore please use alternate mail servers.

> Releases Upload / Добавление релизов

Добавить релиз тут / Click here to add release
Рекомендованные обменники / Recommended file shares

> Absynth - Plèbe 2178 (2021), Stoner/Doom Metal
post Jul 10 2024, 14:39:12
Post #1

Serial Uploader
Group Icon
Group: V.I.P
Posts: 42,944
Releases: 41005
From: Lithuania
On Forums: 16 years 1 month
Thanks: 526989 time(s)
Lithuania


(IMG:https://metalarea.org/images/audiocovers/2024_Jul/acov_tid399346_thumb.jpg)

*Artist: Absynth
*Album: Plèbe 2178
*Year: 2021
*Genre: Stoner/Doom Metal
*Country: Belgium (IMG:https://metalarea.org/forum/style_images/flags/Belgium.png)
*Format: mp3@CBR320kbps
*Size: 148MB

Tracklist:
1. Pigs, Dogs & Whatever You Want 10:25
2. Abyssal Haze 05:26
3. PCP (Psychiatre Carcérale Psychopathe) 07:35
4. Gasp 03:36
5. Black Land Ritual 07:00
6. Heroin Hero 12:52
7. Satan 11:22
******************************
Total playing time: 58:16





Technical info
(IMG:https://metalarea.org/images/spectrogram/2024_Jul/e61d9f2bcf409bbaadcf5aaa084963c6.png)
Input File: 02. Abyssal Haze.mp3
Channels : 2
Sample Rate : 44100
Precision : 16-bit
Duration : 00:05:26.57 = 14401913 samples = 24493 CDDA sectors
File Size : 15.5M
Bit Rate : 381k
Sample Encoding: MPEG audio (layer I, II or III)
Comments :
Title=Abyssal Haze
Artist=Absynth
Album=Pl?be 2178
Tracknumber=2
Year=2021
Genre=Hard Rock



Register


Go to the top of the page
  Insert nick Quick quote
+Quote Post
 
Start new topic
Replies (1 - 2)
post Jul 10 2024, 17:12:02
Post #2

Правь статус, ####!111
**************
Group: Металариец
Posts: 2,850
Releases: 426
From: Bretagne
On Forums: 16 years 1 month
Thanks: 5357 time(s)
France


(IMG:https://i.imgflip.com/8whxrk.jpg)
Go to the top of the page
  Insert nick Quick quote
+Quote Post
post Jul 10 2024, 18:27:22
Post #3

Но порою заходят мочиться
**********
Group: Металариец
Posts: 1,394
Releases: 0
From: Россия
On Forums: 16 years 1 week
Thanks: 785 time(s)
Russian Federation


Сладж. Нету тут никакого дума со стоунером.
Жирный, массивный, хорошо накуренный, из всей той шняги, что налепили в этом году - чуть не самый слушабельный.
Хорошо.
Go to the top of the page
  Insert nick Quick quote
+Quote Post

Reply to this topicStart new topic
1 User(s) are reading this topic (1 Guests and 0 Anonymous Users)
0 Members:

 



- Lo-Fi Version Support form
Copyrights and abuse reports form
Time is now: 15th July 2024 - 21:48:17