Welcome Guest ( Log In | Register )

Объявления

* gmail.com упорно продолжает считать почту с нас "unsolicited" и отбивает в том числе и письма активации, поэтому просьба использовать альтернативные почтовые ящики.
------------
* gmail.com continues reject all mail from us as "unsolicited" (activation mails too) therefore please use alternate mail servers.

> Releases Upload / Добавление релизов

Добавить релиз тут / Click here to add release
Рекомендованные обменники / Recommended file shares

 
Reply to this topicStart new topic
> Absynth - Absynth [ep] (2017), Stoner/Doom Metal
post Jul 10 2024, 14:51:41
Post #1

Serial Uploader
Group Icon
Group: V.I.P
Posts: 42,944
Releases: 41005
From: Lithuania
On Forums: 16 years 1 month
Thanks: 526989 time(s)
Lithuania


(IMG:https://metalarea.org/images/audiocovers/2024_Jul/acov_tid399347_thumb.jpg)

*Artist: Absynth
*Album: Absynth [ep]
*Year: 2017
*Genre: Stoner/Doom Metal
*Country: Belgium (IMG:https://metalarea.org/forum/style_images/flags/Belgium.png)
*Format: mp3@CBR320kbps
*Size: 71MB

Tracklist:
1. Intro 02:05
2. Visions 03:58
3. Hate 04:54
4. Hell 03:47
5. No Exit 05:17
6. Satan 06:43
******************************
Total playing time: 26:44




(IMG:https://metalarea.org/images/youtube.png)

Extended info
Exclusive for Metalarea.org
Official music.amazon.com purchase


Technical info
(IMG:https://metalarea.org/images/spectrogram/2024_Jul/f05d52d7cb92fd87343fcdc99ce39554.png)
Input File: 02. Visions.mp3
Channels : 2
Sample Rate : 44100
Precision : 16-bit
Duration : 00:03:58.88 = 10534432 samples = 17915.7 CDDA sectors
File Size : 11.4M
Bit Rate : 380k
Sample Encoding: MPEG audio (layer I, II or III)
Comments :
Title=Visions
Artist=Absynth
Album=Absynth
Tracknumber=2
Year=2017
Genre=Hard Rock



Register


Go to the top of the page
  Insert nick Quick quote
+Quote Post

Reply to this topicStart new topic
1 User(s) are reading this topic (1 Guests and 0 Anonymous Users)
0 Members:

 



- Lo-Fi Version Support form
Copyrights and abuse reports form
Time is now: 15th July 2024 - 21:59:13