Welcome Guest ( Log In | Register )

Объявления

* gmail.com упорно продолжает считать почту с нас "unsolicited" и отбивает в том числе и письма активации, поэтому просьба использовать альтернативные почтовые ящики.
------------
* gmail.com continues reject all mail from us as "unsolicited" (activation mails too) therefore please use alternate mail servers.

> Releases Upload / Добавление релизов

Добавить релиз тут / Click here to add release
Рекомендованные обменники / Recommended file shares

> Hexecaust - Hexecaust (2024), Black Metal
post Jul 10 2024, 14:56:03
Post #1

Правь статус, 616
**************
Group: Металариец
Posts: 11,009
Releases: 8965
From: 55°35’N 38°08’E
On Forums: 16 years 1 week
Thanks: 159611 time(s)
Russian Federation


(IMG:https://metalarea.org/images/audiocovers/2024_Jul/acov_tid399348_thumb.jpg)

*Artist: Hexecaust
*Album: Hexecaust
*Year: 2024
*Genre: Black Metal
*Country: Belarus (IMG:https://metalarea.org/forum/style_images/flags/Belarus.png)
*Format: mp3@CBR320kbps
*Size: 87MB

Tracklist:
1.Under The Black Banners Of Satan 05:11
2.Ex Nihilo Ad Infinitum 05:41
3.Necromancer Of The Black Word 06:00
4.The Great Devil's Craft 04:31
5.Spawned From The Cursed Womb 05:55
6.Silver No Longer Redeems The Crucifix 05:05
7.Edengrave 05:38
******************************
Total playing time: 38:01



Technical info
(IMG:https://metalarea.org/images/spectrogram/2024_Jul/22d512052893e4ceec3cadae4e4914a9.png)
Input File: 01 Under The Black Banners Of Satan.mp3
Channels : 2
Sample Rate : 44100
Precision : 16-bit
Duration : 00:05:11.09 = 13718893 samples = 23331.5 CDDA sectors
File Size : 12.5M
Bit Rate : 322k
Sample Encoding: MPEG audio (layer I, II or III)
Comments :
Title=Under The Black Banners Of Satan
Artist=HEXECAUST
Album=Hexecaust
Tracknumber=1
Year=2024
Genre=Black Metal



Register


Go to the top of the page
  Insert nick Quick quote
+Quote Post
 
Start new topic
Replies (1 - 1)
post Jul 10 2024, 17:24:46
Post #2

Правь статус, ####!111
**************
Group: Металариец
Posts: 2,850
Releases: 426
From: Bretagne
On Forums: 16 years 1 month
Thanks: 5357 time(s)
France


professionnal-quality hateful black metal in the vein of Dark Funeral, Gorgoroth ...

"name your price" on bandcamp (IMG:style_emoticons/default/19.gif)


Thanks:
(1) Occultas,
Go to the top of the page
  Insert nick Quick quote
+Quote Post

Reply to this topicStart new topic
2 User(s) are reading this topic (2 Guests and 0 Anonymous Users)
0 Members:

 



- Lo-Fi Version Support form
Copyrights and abuse reports form
Time is now: 15th July 2024 - 21:41:40