Welcome Guest ( Log In | Register )

Объявления

* gmail.com упорно продолжает считать почту с нас "unsolicited" и отбивает в том числе и письма активации, поэтому просьба использовать альтернативные почтовые ящики.
------------
* gmail.com continues reject all mail from us as "unsolicited" (activation mails too) therefore please use alternate mail servers.

> Releases Upload / Добавление релизов

Добавить релиз тут / Click here to add release
Рекомендованные обменники / Recommended file shares

 
Reply to this topicStart new topic
> Dunerider - Ascend To The Void (2022), Sludge/Stoner/Doom Metal
post Jul 10 2024, 15:08:21
Post #1

Serial Uploader
Group Icon
Group: V.I.P
Posts: 42,944
Releases: 41005
From: Lithuania
On Forums: 16 years 1 month
Thanks: 526989 time(s)
Lithuania


(IMG:https://metalarea.org/images/audiocovers/2024_Jul/acov_tid399349_thumb.jpg)

*Artist: Dunerider
*Album: Ascend To The Void
*Year: 2022
*Genre: Sludge/Stoner/Doom Metal
*Country: France (IMG:https://metalarea.org/forum/style_images/flags/France.png)
*Format: mp3@CBR320kbps
*Size: 119MB

Tracklist:
1. Monument 08:27
2. Electric Guardians 09:24
3. The Passage 07:25
4. From Sand To Aether 03:45
5. Celestial Transcendence 09:32
6. The Void 09:35
******************************
Total playing time: 48:08



(IMG:https://metalarea.org/images/youtube.png)

Extended info
Exclusive for Metalarea.org


Technical info
(IMG:https://metalarea.org/images/spectrogram/2024_Jul/288b522d465d3b6c3739df5d6914ddc6.png)
Input File: 03. The Passage.mp3
Channels : 2
Sample Rate : 44100
Precision : 16-bit
Duration : 00:07:25.18 = 19632306 samples = 33388.3 CDDA sectors
File Size : 19.7M
Bit Rate : 353k
Sample Encoding: MPEG audio (layer I, II or III)
Comments :
Title=The Passage
Artist=Dunerider
Album=Ascend to the Void
Tracknumber=3
Year=2022
Genre=Hard Rock



Register


Go to the top of the page
  Insert nick Quick quote
+Quote Post

Reply to this topicStart new topic
1 User(s) are reading this topic (1 Guests and 0 Anonymous Users)
0 Members:

 



- Lo-Fi Version Support form
Copyrights and abuse reports form
Time is now: 15th July 2024 - 22:26:16